.
Авторизация | Регистрация
Хочешь лучшие торренты? Добавь свой email!
Добавить

Торрент скачать бесплатно

» » Короли фанеры (2017.10.07) SATRip (выпуск 4) торрент скачать бесплатно




    Короли фанеры (2017.10.07) SATRip (выпуск 4) торрент скачать бесплатно

    Опубликовал: Админ | Дата: 8-10-2017, 05:00 | Просмотров: 0

    Телекомпания: Первый канал
    Жанр: Юмор, Музыкальное шоу
    Ведущие: Павел Прилучный, Яна Кошкина

    Описание

    Дебют формата антикараоке в отечественном телеэфире и одновременно дебют главного мажора страны в роли телеведущего. Короли фанеры - русская версия мирового телехита Lip Sync Battle, участники которого из числа селебрити воспроизводят на сцене музыкальные хиты... под фонограмму! При этом победителя каждого выпуска программы будет определять забитый до отказа танцпол при помощи шумомера - чемпионский пояс вручат тому, кого зрители в студии поддержат громче.
    Продолжительность: ~ 00: 38: 13
    Качество видео: SATRip
    Субтитры: Отсутствуют
    Реклама: Присутствуют вставки текстовой рекламы
    Видео: MPEG4, XviD, 704x448 (1.571), 25.000 fps, 1 697 Kbps (0.215 bit/pixel)
    Аудио: MP3, 48.0 KHz, 2 ch, 128 Kbps, CBR
    Код: выделить все
    Общее
    Полное имя : D:\[1]\Короли фанеры\Короли фанеры (2017.10.07).avi
    Формат : AVI
    Формат/Информация : Audio Video Interleave
    Размер файла : 501 Мбайт
    Продолжительность : 38 м.
    Общий поток : 1834 Кбит/сек
    Программа кодирования : VirtualDubMod 1.5.10.3 |www.virtualdub-fr.org|| (build 2550/release)
    Библиотека кодирования : VirtualDubMod build 2550/release
    Видео
    Идентификатор : 0
    Формат : MPEG-4 Visual
    Профиль формата : Advanced Simple@L5
    Параметр BVOP формата : 2
    Параметр QPel формата : Нет
    Параметр GMC формата : Без точки перехода
    Параметр матрицы формата : Default (MPEG)
    Идентификатор кодека : XVID
    Идентификатор кодека/Подсказка : XviD
    Продолжительность : 38 м.
    Битрейт : 1697 Кбит/сек
    Ширина : 704 пикселя
    Высота : 448 пикселей
    Соотношение сторон : 16:10
    Частота кадров : 25, 000 кадров/сек
    Цветовое пространство : YUV
    Субдискретизация насыщенности : 4:2:0
    Битовая глубина : 8 бит
    Тип развёртки : Прогрессивная
    Метод сжатия : С потерями
    Бит/(Пиксели*Кадры) : 0.215
    Размер потока : 464 Мбайт (92%)
    Библиотека кодирования : XviD 1.2.1 (UTC 2008-12-04)
    Аудио
    Идентификатор : 1
    Формат : MPEG Audio
    Версия формата : Version 1
    Профиль формата : Layer 3
    Режим : Joint stereo
    Расширение режима : MS Stereo
    Идентификатор кодека : 55
    Идентификатор кодека/Подсказка : MP3
    Продолжительность : 38 м.
    Вид битрейта : Постоянный
    Битрейт : 128 Кбит/сек
    Каналы : 2 канала
    Частота : 48, 0 КГц
    Метод сжатия : С потерями
    Размер потока : 35, 0 Мбайт (7%)
    Выравнивание : Соединение по промежуткам
    Продолжительность промежутка : 40 мс. (1, 00 видеокадр)
    Время предзагрузки промежутка : 504 мс.
    Библиотека кодирования : LAME3.99r
    Настройки программы : -m j -V 4 -q 9 -lowpass 17 -b 128

    Скриншоты для ознакомления



    Все одноименные релизы в Клубе
    Время раздачи: 24/7. До первых 5 скачавших.

    Короли фанеры (2017.10.07) SATRip (выпуск 4)
    загрузка...
    Рейтинг →
     (голосов: 1, оценка 5/5, голосовать можно 1 раз )

    Другие торренты по теме:

  • Короли фанеры (2017.09.16) SATRip (выпуск 1)
  • Короли фанеры (2017.09.23) SATRip (выпуск 2)
  • Короли фанеры (2017.09.30) SATRip (выпуск 3)


    • Комментарии (0):

      Информация

      Информация

        Посетители, находящиеся в группе Гости, не могут оставлять комментарии в данной новости.

        ↓ Меню




        ↓ Опрос

        Вы добавили сайт в закладки?
        Да
        Нет


        Top 10 за месяц (Передачи)