.
Авторизация | Регистрация
Хочешь лучшие торренты? Добавь свой email!
Добавить

Торрент скачать бесплатно

» » Бесогон ТВ. Ах, санкции, санкции (21.03.2015) WEBRip [H.264 / 1080p-LQ] торрент скачать бесплатно




    Бесогон ТВ. Ах, санкции, санкции (21.03.2015) WEBRip [H.264 / 1080p-LQ] торрент скачать бесплатно

    Опубликовал: Админ | Дата: 8-10-2017, 05:00 | Просмотров: 0

    Телекомпания: Россия 24
    Жанр: Телепередача, общественно-политическая программа
    Ведущий: Никита Михалков

    Описание

    Авторская Программа Никиты Михалкова Бесогон TV на канале Россия 24 выходит 1 или 2 раза в месяц.
    Цель этого авторского канала, - поделится мыслями и опровергнуть домыслы появляющиеся в сети и не отражающие истинного мнения автора передачи, - Никиты Михалкова о том или ином событии.
    Темы выпусков самые разные, но доминируют политика и общество.
    Сегодня, когда в отношении России вводятся все новые и новые санкционные меры, попробуем взглянуть на санкции, их роль и значение для России через призму истории нашей страны и особенностей русского национального характера.
    Продолжительность: 00: 37: 30
    Качество видео: WEBRip
    Видео: AVC/H.264, 1920x1080 (16: 9), ~1990 Kbps
    Аудио: AAC, 2 ch, 126 Kbps

    General
    Unique ID : 188824542515470992683038387010712293529 (0x8E0E48B89650834D8824F5867B4AD099)
    Complete name : D: \Film\Бесогон ТВ Ах санкции санкции.mkv
    Format : Matroska
    Format version : Version 4/Version 2
    File size : 568 MiB
    Duration : 37 min 30 s
    Overall bit rate : 2 119 kb/s
    Encoded date : UTC 2017-10-07 17: 36: 20
    Writing application : mkvmerge v16.0.0 (\\'Protest\\') 64-bit
    Writing library : libebml v1.3.5 + libmatroska v1.4.8
    Cover : Yes
    Attachments : cover.png
    Video
    ID : 1
    Format : AVC
    Format/Info : Advanced Video Codec
    Format profile : High@L4
    Format settings : CABAC/3 Ref Frames
    Format settings, CABAC : Yes
    Format settings, RefFrames : 3 frames
    Codec ID : V_MPEG4/ISO/AVC
    Duration : 37 min 30 s
    Bit rate : 1 990 kb/s
    Width : 1 920 pixels
    Height : 1 080 pixels
    Display aspect ratio : 16: 9
    Frame rate mode : Constant
    Frame rate : 25.000 FPS
    Color space : YUV
    Chroma subsampling : 4: 2: 0
    Bit depth : 8 bits
    Scan type : Progressive
    Bits/(Pixel*Frame) : 0.038
    Stream size : 534 MiB (94%)
    Language : Russian
    Default : Yes
    Forced : No
    Audio
    ID : 2
    Format : AAC
    Format/Info : Advanced Audio Codec
    Format profile : LC
    Codec ID : A_AAC-2
    Duration : 37 min 30 s
    Bit rate : 126 kb/s
    Channel(s) : 2 channels
    Channel positions : Front: L R
    Sampling rate : 44.1 kHz
    Frame rate : 43.066 FPS (1024 SPF)
    Compression mode : Lossy
    Stream size : 33.7 MiB (6%)
    Language : Russian
    Default : Yes
    Forced : No

    Скриншоты для ознакомления





    Все одноименные релизы в Клубе
    Время раздачи: 07: 00-23: 00 (до появления первых 3-5 скачавших)

    Бесогон ТВ. Ах, санкции, санкции (21.03.2015) WEBRip [H.264/1080p-LQ]
    загрузка...
    Рейтинг →
     (голосов: 1, оценка 4/5, голосовать можно 1 раз )

    Другие торренты по теме:

  • Бесогон ТВ. Хватит врать (28.07.2017) WEBRip [H.264 / 1080p-LQ]
  • Бесогон ТВ. Что бы сказал Альфред Нобель (07.07.2017) WEBRip [H.264 / 1080p-LQ]
  • Бесогон ТВ. Анатомия фальши (16.06.2017) WEBRip [H.264 / 1080p-LQ]
  • Бесогон ТВ. Живые и мёртвые (27.05.2017) WEBRip [H.264 / 1080p-LQ]
  • Бесогон ТВ. Удел тех, у кого нет идеологии, - пикник на обочине истории (17.01.2015) WEBRip [H.264 / 1080p-LQ]
  • Бесогон ТВ. Есть ли выход из исторического лабиринта Ельцин Центра (26.03.2016) WEBRip [H.264 / 720p-LQ]
  • Бесогон ТВ. Властители дум (17.02.2017) WEBRip [H.264 / 1080p-LQ]
  • Бесогон ТВ. Поп Гапон как зеркало русской оппозиции (07.04.2017) WEBRip [H.264 / 1080p-LQ]


    • Комментарии (0):

      Информация

      Информация

        Посетители, находящиеся в группе Гости, не могут оставлять комментарии в данной новости.

        ↓ Меню




        ↓ Опрос

        Вы добавили сайт в закладки?
        Да
        Нет


        Top 10 за месяц (Передачи)

        Nat Geo Wild: Дикая Иберия / Wild Iberia [сезон 1 серии 1-4 из 4] (2014) HDTVRip [H.264 / 720p] скачать через торрент бесплатно

        (скачиваний: 6)
        Бренды Советской Эпохи (серии 84 из) (2013-2016) SATRip

        (скачиваний: 5)
        Сергей Тармашев | Что посеешь (2016) [FB2]

        (скачиваний: 5)
        Ольга Гусейнова | Галактика. Принцесса и Генерал (2016) [FB2]

        (скачиваний: 4)
        Короли фанеры (2017.10.07) SATRip (выпуск 4)

        (скачиваний: 4)
        Вести недели (01.10.2017) SATRip

        (скачиваний: 3)
        Международный авиационно-космический салон МАКС-2017 в Жуковском (2017) HDTV [H.264 / 1080p-LQ]

        (скачиваний: 3)
        Алекс Новак, Юрий Трогиянов | Добро с кулаками. Принципы мышления четырехкратного чемпиона мира по кикбоксингу в реальной жизни (2017) [FB2]

        (скачиваний: 3)
        Журнал | Рецепты на бис. Спецвыпуск №1 (19) (2017) [PDF]

        (скачиваний: 3)
        Винсент. Нерассказанная история нашего дяди. Биография Винсента Ван Гога / Vincent - The Untold Story of our Uncle, a biography the life & times of Vincent van Gogh (2012) DVB [H.264] (Серии 1-7 из 7)

        (скачиваний: 3)