.
Авторизация | Регистрация
Хочешь лучшие торренты? Добавь свой email!
Добавить

Торрент скачать бесплатно

» » Битва экстрасенсов (2017.10.07) HDTV [H.264 / 1080i] (сезон 18, выпуск 3) торрент скачать бесплатно




    Битва экстрасенсов (2017.10.07) HDTV [H.264 / 1080i] (сезон 18, выпуск 3) торрент скачать бесплатно

    Опубликовал: Админ | Дата: 8-10-2017, 05:00 | Просмотров: 0

    Телекомпания: ТНТ HD
    Жанр: Реалити Шоу
    Ведущий: Марат Башаров

    Описание

    С 23 сентября на ТНТ стартует долгожданный 18-й сезон любимого сериала Битвы экстрасенсов — самого мистического, непредсказуемого и загадочного проекта российского ТВ. Масштабный кастинг, новые яркие участники и высокие технологии в мире экстрасенсорики. Новый сезон любимого сериала обещает стать самым необычным и удивительным в истории шоу. Мне бы очень хотелось, чтобы в новом сезон любимого сериалае экстрасенсы поменьше обращали бы внимание на свою самореализацию, а больше помогали людям. Ведь каждый сезон любимого сериала к нам обращаются те, кто действительно ждет помощи. И это, по-моему, для людей со сверхспособностями должно быть приоритетным!, — Марат Башаров, ведущий проекта.

    Возраст: 16+ (зрителям, достигшим 16 лет)
    Продолжительность: ~ 01: 14: 00
    Качество видео: HDTV
    Субтитры: Отсутствуют
    Видео: AVC, 1920x1080 (16: 9), 25.000 fps, 6 388 Kbps (0.123 bit/pixel)
    Аудио: MP2, 48.0 KHz, 2 ch, 192 Kbps, CBR
    Код: выделить все
    Общее
    Идентификатор : 22 (0x16)
    Полное имя : D:\[1]\Битва экстрасенсов\Битва экстрасенсов. Сезон 18. Выпуск 03 (2017.10.07)_1080.ts
    Формат : MPEG-TS
    Размер файла : 3, 58 Гбайт
    Продолжительность : 1 ч. 14 м.
    Режим общего битрейта : Переменный
    Общий поток : 6924 Кбит/сек
    Видео
    Идентификатор : 207 (0xCF)
    Идентификатор меню : 2207 (0x89F)
    Формат : AVC
    Формат/Информация : Advanced Video Codec
    Профиль формата : High@L4
    Параметр CABAC формата : Да
    Параметр ReFrames формата : 4 кадра
    Идентификатор кодека : 27
    Продолжительность : 1 ч. 14 м.
    Битрейт : 6388 Кбит/сек
    Ширина : 1920 пикселей
    Высота : 1080 пикселей
    Соотношение сторон : 16:9
    Частота кадров : 25, 000 кадров/сек
    Стандарт вещания : Component
    Цветовое пространство : YUV
    Субдискретизация насыщенности : 4:2:0
    Битовая глубина : 8 бит
    Тип развёртки : Чересстрочная
    Порядок развёртки : Верхнее поле первое
    Бит/(Пиксели*Кадры) : 0.123
    Размер потока : 3, 30 Гбайт (92%)
    Цветовой диапазон : Limited
    Основные цвета : BT.709
    Характеристики трансфера : BT.709
    Коэффициенты матрицы : BT.709
    Аудио
    Идентификатор : 307 (0x133)
    Идентификатор меню : 2207 (0x89F)
    Формат : MPEG Audio
    Версия формата : Version 1
    Профиль формата : Layer 2
    Идентификатор кодека : 4
    Продолжительность : 1 ч. 14 м.
    Вид битрейта : Постоянный
    Битрейт : 192 Кбит/сек
    Каналы : 2 канала
    Частота : 48, 0 КГц
    Метод сжатия : С потерями
    Задержка видео : 94 мс.
    Размер потока : 102 Мбайт (3%)
    Язык : Russian
    Язык, дополнительно : Clean effects

    Скриншоты для ознакомления



    Все одноименные релизы в Клубе
    Время раздачи: 24/7. До первых 5 скачавших.

    Битва экстрасенсов (2017.10.07) HDTV [H.264/1080i] (сезон 18, выпуск 3)
    загрузка...
    Рейтинг →
     (голосов: 1, оценка 4/5, голосовать можно 1 раз )

    Другие торренты по теме:

  • Битва экстрасенсов. Украина (сезон 14, выпуск 1) / Битва екстрасенсів (2014) SATRip [RUS / UKR] скачать через торрент бесплатно
  • Битва экстрасенсов. Украина (сезон 14, выпуск 1-3 из 13) / Битва екстрасенсів (2014) SATRip [UKR / RUS] [обновляемая]
  • Битва экстрасенсов. Сезон №15. Выпуск №2 (2014) SATRip
  • Битва экстрасенсов. Сезон №15. Выпуск №2 (2014) WEB-DL [H.264 / 720p]
  • Битва экстрасенсов. Сезон №15. Выпуск №3 (2014) SATRip скачать через торрент бесплатно
  • Битва экстрасенсов. Сезон №15. Выпуск №4 (2014) WEB-DLRip скачать через торрент бесплатно
  • Битва экстрасенсов. Сезон №15. Выпуск №4 (2014) WEB-DL [H.264 / 720p] скачать через торрент бесплатно
  • Битва экстрасенсов. Сезон №15. Выпуск №4 (2014) SATRip


    • Комментарии (0):

      Информация

      Информация

        Посетители, находящиеся в группе Гости, не могут оставлять комментарии в данной новости.

        ↓ Меню




        ↓ Опрос

        Вы добавили сайт в закладки?
        Да
        Нет


        Top 10 за месяц (Передачи)