.
Авторизация | Регистрация
Хочешь лучшие торренты? Добавь свой email!
Добавить

Торрент скачать бесплатно

» » Дэвид Бэкхем: Реальная любовь / David Beckham: For the Love of the Game (2015) DVB торрент скачать бесплатно




    Дэвид Бэкхем: Реальная любовь / David Beckham: For the Love of the Game (2015) DVB торрент скачать бесплатно

    Опубликовал: Админ | Дата: 8-10-2017, 05:00 | Просмотров: 0

    Телекомпания: Великобритания/Big Earth
    Жанр: Документальный, Биография, Спорт
    Участники: Режиссер: Мэтт Смит, Шона Конэр, Джэйми Сил

    Описание

    Суперзвезда футбола Дэвид Бекхэм путешествует по странам и играет в футбол.

    Продолжительность: 01: 27: 14
    Качество видео: DVB
    Перевод: Одноголосый закадровый, профессиональный
    Субтитры: Русские (Teletext, Sub 888)
    Видео: AVC/H.264, 720х576@1024x576, ~2663 kbps
    Аудио: MP2, 2 ch, 192 Kbps

    Общее
    Идентификатор : 16 (0x10)
    Полное имя : David Beckham For the Love of the Game.ts
    Формат : MPEG-TS
    Размер файла : 1, 83 Гбайт
    Продолжительность : 1 ч. 27 м.
    Режим общего битрейта : Переменный
    Общий поток : 3005 Кбит/сек
    Видео
    Идентификатор : 1031 (0x407)
    Идентификатор меню : 1030 (0x406)
    Формат : AVC
    Формат/Информация : Advanced Video Codec
    Профиль формата : Main@L3
    Настройки формата : CABAC/4 Ref Frames
    Параметр CABAC формата : Да
    Параметр RefFrames формата : 4 кадра
    Идентификатор кодека : 27
    Продолжительность : 1 ч. 27 м.
    Битрейт : 2663 Кбит/сек
    Ширина : 720 пикселей
    Высота : 576 пикселей
    Соотношение сторон : 16: 9
    Частота кадров : 25, 000 кадров/сек
    Стандарт вещания : PAL
    Цветовое пространство : YUV
    Субдискретизация насыщенности : 4: 2: 0
    Битовая глубина : 8 бит
    Тип развёртки : Чересстрочная
    Метод сохранения типа развёртки : Раздельные поля
    Порядок развёртки : Верхнее поле первое
    Бит/(Пиксели*Кадры) : 0.257
    Размер потока : 1, 62 Гбайт (89%)
    Цветовой диапазон : Limited
    Основные цвета : BT.601 PAL
    Характеристики трансфера : BT.470 System B, BT.470 System G
    Коэффициенты матрицы : BT.470 System B, BT.470 System G
    Аудио
    Идентификатор : 1032 (0x408)
    Идентификатор меню : 1030 (0x406)
    Формат : MPEG Audio
    Версия формата : Version 1
    Профиль формата : Layer 2
    Идентификатор кодека : 4
    Продолжительность : 1 ч. 27 м.
    Вид битрейта : Постоянный
    Битрейт : 192 Кбит/сек
    Каналы : 2 канала
    Частота : 48, 0 КГц
    Метод сжатия : С потерями
    Задержка видео : 138 мс.
    Размер потока : 120 Мбайт (6%)
    Язык : std
    Язык, дополнительно : Clean effects
    Прочее #1
    Идентификатор : 1034 (0x40A)-100
    Идентификатор меню : 1030 (0x406)
    Формат : Teletext
    Прочее #2
    Идентификатор : 1034 (0x40A)-888
    Идентификатор меню : 1030 (0x406)
    Формат : Teletext
    Язык, дополнительно : Additional information page

    Скриншоты для ознакомления



    Все одноименные релизы в Клубе
    Время раздачи: Пн-Пт с 18: 00 до 22: 00 (до появления первых 3-5 скачавших)

    Дэвид Бэкхем: Реальная любовь/David Beckham: For the Love of the Game (2015) DVB
    загрузка...
    Рейтинг →
     (голосов: 1, оценка 4/5, голосовать можно 1 раз )

    Другие торренты по теме:

  • Дэвид Перлмуттер | Еда и мозг. Что углеводы делают со здоровьем, мышлением и памятью (2014) [FB2]
  • Дэвид Г. Симонс и др.| Миофасциальные боли и дисфункции. Руководство по триггерным точкам. Том 2 (2005) [DJVU] скачать через торрент бесплатно
  • Дэвид Блейн. Реальность или магия / David Blaine. Real or Magic (2013) HDTVRip [H.264 / 720p] скачать через торрент бесплатно
  • BBC: Дэвид Старки - Музыка и Монархия / David Starkeys Music and Monarchy (2013) SATRip
  • Дэвид Дойч | Структура реальности. Наука параллельных вселенных (2015) [FB2]
  • Дэвид Линч: Начало / La vie revee de David (2014) WEB-DLRip [VO] скачать через торрент бесплатно
  • Дэвид Рок | Мозг. Инструкция по применению. Как использовать свои возможности по максимуму и без перегрузок (2013) [EPUB, PDF] скачать через торрент бесплатно
  • Дэвид Байес-Лопес, Феликс Гэррэро-Кастро | Продвинутый анализ цепей с помощью Multisim (2012) [PDF] [En]


    • Комментарии (0):

      Информация

      Информация

        Посетители, находящиеся в группе Гости, не могут оставлять комментарии в данной новости.

        ↓ Меню




        ↓ Опрос

        Вы добавили сайт в закладки?
        Да
        Нет


        Top 10 за месяц (Передачи)

        Nat Geo Wild: Дикая Иберия / Wild Iberia [сезон 1 серии 1-4 из 4] (2014) HDTVRip [H.264 / 720p] скачать через торрент бесплатно

        (скачиваний: 6)
        Бренды Советской Эпохи (серии 84 из) (2013-2016) SATRip

        (скачиваний: 5)
        Сергей Тармашев | Что посеешь (2016) [FB2]

        (скачиваний: 5)
        Ольга Гусейнова | Галактика. Принцесса и Генерал (2016) [FB2]

        (скачиваний: 4)
        Короли фанеры (2017.10.07) SATRip (выпуск 4)

        (скачиваний: 4)
        Вести недели (01.10.2017) SATRip

        (скачиваний: 3)
        Международный авиационно-космический салон МАКС-2017 в Жуковском (2017) HDTV [H.264 / 1080p-LQ]

        (скачиваний: 3)
        Алекс Новак, Юрий Трогиянов | Добро с кулаками. Принципы мышления четырехкратного чемпиона мира по кикбоксингу в реальной жизни (2017) [FB2]

        (скачиваний: 3)
        Журнал | Рецепты на бис. Спецвыпуск №1 (19) (2017) [PDF]

        (скачиваний: 3)
        Винсент. Нерассказанная история нашего дяди. Биография Винсента Ван Гога / Vincent - The Untold Story of our Uncle, a biography the life & times of Vincent van Gogh (2012) DVB [H.264] (Серии 1-7 из 7)

        (скачиваний: 3)