.
Авторизация | Регистрация
Хочешь лучшие торренты? Добавь свой email!
Добавить

Торрент скачать бесплатно

» » Шорт-трек. Кубок Мира 2017-2018. 1-й Этап. Будапешт (Венгрия). 3-й день соревнований (30.09.2017) IPTVRip [H.264 / 1080p-LQ] торрент скачать бесплатно




    Шорт-трек. Кубок Мира 2017-2018. 1-й Этап. Будапешт (Венгрия). 3-й день соревнований (30.09.2017) IPTVRip [H.264 / 1080p-LQ] торрент скачать бесплатно

    Опубликовал: Админ | Дата: 7-10-2017, 05:00 | Просмотров: 0

    Телекомпания: Матч! Арена HD
    Жанр: Спорт
    Комментаторы: Максим Батейкин, Ольга Богословская

    Описание
    30 сентября 2017 года
    Шорт-трек. Кубок Мира 2017-2018. 1-й Этап. Будапешт (Венгрия)
    3-й день соревнований:
    Женщины/Mужчины - 1500 м. - 1/2 Финала, Финал
    Женщины/Mужчины - 500 м - 1/4 Финала, 1/2 Финала, Финал
    Женщины - 3000 м Эстафета - 1/2 Финала
    Mужчины - 5000 м Эстафета - 1/2 Финала
    Стадион: BOK Csarnok (Будапешт, Венгрия)
    Продолжительность: 03: 30: 27
    Качество видео: IPTVRip
    Язык озвучки: Русский
    Субтитры: отсутствуют
    Видео: AVC/H.264, 1920x1080 (16: 9), ~4393 Kbps
    Аудио: AAC, 2 ch, 48 kHz, 128 Kbps

    Общее
    Уникальный идентификатор : 240354546158923057848359246558677213484 (0xB4D29A0DB5EAF0A7B435A3CBB49CA12C)
    Полное имя : F: \SPORT\Коньки\Short-track\30.09.2017_ISU WC Short Track 17-18.1St.Budapest(HUN). 3 Day_1080p.mkv
    Формат : Matroska
    Версия формата : Version 4/Version 2
    Размер файла : 6, 65 Гбайт
    Продолжительность : 3 ч. 30 м.
    Общий поток : 4523 Кбит/сек
    Дата кодирования : UTC 2017-10-06 02: 30: 54
    Программа кодирования : mkvmerge v16.0.0 (\\'Protest\\') 32-bit
    Библиотека кодирования : libebml v1.3.5 + libmatroska v1.4.8
    Видео
    Идентификатор : 1
    Формат : AVC
    Формат/Информация : Advanced Video Codec
    Профиль формата : High@L4
    Параметр CABAC формата : Да
    Параметр RefFrames формата : 2 кадра
    Идентификатор кодека : V_MPEG4/ISO/AVC
    Продолжительность : 3 ч. 30 м.
    Битрейт : 4393 Кбит/сек
    Ширина : 1920 пикселей
    Высота : 1080 пикселей
    Соотношение сторон : 16: 9
    Режим частоты кадров : Постоянный
    Частота кадров : 25, 000 кадров/сек
    Цветовое пространство : YUV
    Субдискретизация насыщенности : 4: 2: 0
    Битовая глубина : 8 бит
    Тип развёртки : Прогрессивная
    Бит/(Пиксели*Кадры) : 0.085
    Размер потока : 6, 46 Гбайт (97%)
    Default : Да
    Forced : Нет
    Аудио
    Идентификатор : 2
    Формат : AAC
    Формат/Информация : Advanced Audio Codec
    Профиль формата : LC
    Идентификатор кодека : A_AAC
    Продолжительность : 3 ч. 30 м.
    Битрейт : 128 Кбит/сек
    Каналы : 2 канала
    Расположение каналов : Front: L R
    Частота : 48, 0 КГц
    Частота кадров : 46, 875 кадров/сек (1024 SPF)
    Метод сжатия : С потерями
    Размер потока : 193 Мбайт (3%)
    Язык : Russian
    Default : Да
    Forced : Нет

    Скриншоты для ознакомления



    Все одноименные релизы в Клубе
    Время раздачи: 24/7 (около 1 месяца)

    Шорт-трек. Кубок Мира 2017-2018. 1-й Этап. Будапешт (Венгрия). 3-й день соревнований (30.09.2017) IPTVRip [H.264/1080p-LQ]
    загрузка...
    Рейтинг →
     (голосов: 1, оценка 3/5, голосовать можно 1 раз )

    Другие торренты по теме:

  • Шорт-трек. Кубок Мира 2016-2017. 2-й Этап. Солт Лейк Сити (США). 2-й день соревнований (12.11.2016) WEB-DL [H.264 / 720p-LQ]
  • Шорт-трек. Кубок Мира 2016-2017. 2-й Этап. Солт Лейк Сити (США). 3-й день соревнований (2016) WEB-DL
  • Шорт-трек. Кубок Мира 2016-2017. 1-й Этап. Калгари (Канада). 3-й день соревнований (06.11.2016) WEB-DL [H.264 / 720p-LQ]
  • Шорт-трек. Кубок Мира 2016-2017. 1-й Этап. Калгари (Канада). 2-й день соревнований (05.11.2016) WEB-DL [H.264 / 720p-LQ]
  • Шорт-трек. Кубок Мира 2016-2017. Шанхай (Китай). 3-й Этап (2016) WEB-DL [H.264 / 720p-LQ]
  • Шорт-трек. Кубок Мира 2016-2017.4-й Этап. Каннын (Южная Корея). 3-й день соревнований (18.12.2016) WEB-DL [H.264 / 720p-LQ]
  • Шорт-трек. Кубок Мира 2016-2017.4-й Этап. Каннын (Южная Корея). 2-й день соревнований (17.12.2016) WEB-DL [H.264 / 720p-LQ][INT]
  • Шорт-трек. Кубок Мира 2016-2017. 6-й Этап. Минск (Беларусь). 3-й день соревнований (12.02.2017) WEB-DL [H.264 / 720p-LQ]


    • Комментарии (0):

      Информация

      Информация

        Посетители, находящиеся в группе Гости, не могут оставлять комментарии в данной новости.

        ↓ Меню




        ↓ Опрос

        Вы добавили сайт в закладки?
        Да
        Нет


        Top 10 за месяц (Передачи)