.
Авторизация | Регистрация
Хочешь лучшие торренты? Добавь свой email!
Добавить

Торрент скачать бесплатно

» » Шорт-трек. Кубок Мира 2017-2018. 1-й Этап. Будапешт (Венгрия). 4-й день соревнований (01.10.2017) IPTVRip [H.264 / 1080p-LQ] торрент скачать бесплатно




    Шорт-трек. Кубок Мира 2017-2018. 1-й Этап. Будапешт (Венгрия). 4-й день соревнований (01.10.2017) IPTVRip [H.264 / 1080p-LQ] торрент скачать бесплатно

    Опубликовал: Админ | Дата: 7-10-2017, 05:00 | Просмотров: 0

    Телекомпания: Матч! Арена HD
    Жанр: Спорт
    Комментаторы: Максим Батейкин, Ольга Богословская

    Описание
    01 октября 2017 года
    Шорт-трек. Кубок Мира 2017-2018. 1-й Этап. Будапешт (Венгрия)
    4-й день соревнований:
    Женщины/Mужчины - 1000 м. - 1/4 Финала, 1/2 Финала, Финал
    Женщины - 3000 м Эстафета - Финал
    Mужчины - 5000 м Эстафета - Финал
    Стадион: BOK Csarnok (Будапешт, Венгрия)
    Продолжительность: 02: 19: 21
    Качество видео: IPTVRip
    Язык озвучки: Русский
    Субтитры: отсутствуют
    Видео: AVC/H.264, 1920x1080 (16: 9), ~4079 Kbps
    Аудио: AAC, 2 ch, 48 kHz, 128 Kbps

    Общее
    Уникальный идентификатор : 226209945051608864378457996425902868300 (0xAA2E73605FE08D4DA2C39FE7FFFEC74C)
    Полное имя : F: \SPORT\Коньки\Short-track\01.10.2017_ISU WC Short Track 17-18.1St.Budapest(HUN). 4 Day_1080p.mkv
    Формат : Matroska
    Версия формата : Version 4/Version 2
    Размер файла : 4, 10 Гбайт
    Продолжительность : 2 ч. 19 м.
    Общий поток : 4209 Кбит/сек
    Дата кодирования : UTC 2017-10-06 03: 11: 02
    Программа кодирования : mkvmerge v16.0.0 (\\'Protest\\') 32-bit
    Библиотека кодирования : libebml v1.3.5 + libmatroska v1.4.8
    Видео
    Идентификатор : 1
    Формат : AVC
    Формат/Информация : Advanced Video Codec
    Профиль формата : High@L4
    Параметр CABAC формата : Да
    Параметр RefFrames формата : 4 кадра
    Идентификатор кодека : V_MPEG4/ISO/AVC
    Продолжительность : 2 ч. 19 м.
    Битрейт : 4079 Кбит/сек
    Ширина : 1920 пикселей
    Высота : 1080 пикселей
    Соотношение сторон : 16: 9
    Режим частоты кадров : Постоянный
    Частота кадров : 25, 000 кадров/сек
    Стандарт вещания : Component
    Цветовое пространство : YUV
    Субдискретизация насыщенности : 4: 2: 0
    Битовая глубина : 8 бит
    Тип развёртки : Прогрессивная
    Бит/(Пиксели*Кадры) : 0.079
    Размер потока : 3, 97 Гбайт (97%)
    Default : Да
    Forced : Нет
    Цветовой диапазон : Limited
    Аудио
    Идентификатор : 2
    Формат : AAC
    Формат/Информация : Advanced Audio Codec
    Профиль формата : LC
    Идентификатор кодека : A_AAC
    Продолжительность : 2 ч. 19 м.
    Битрейт : 128 Кбит/сек
    Каналы : 2 канала
    Расположение каналов : Front: L R
    Частота : 48, 0 КГц
    Частота кадров : 46, 875 кадров/сек (1024 SPF)
    Метод сжатия : С потерями
    Размер потока : 128 Мбайт (3%)
    Язык : Russian
    Default : Да
    Forced : Нет

    Скриншоты для ознакомления



    Все одноименные релизы в Клубе
    Время раздачи: 24/7 (около 1 месяца)

    Шорт-трек. Кубок Мира 2017-2018. 1-й Этап. Будапешт (Венгрия). 4-й день соревнований (01.10.2017) IPTVRip [H.264/1080p-LQ]
    загрузка...
    Рейтинг →
     (голосов: 1, оценка 4/5, голосовать можно 1 раз )

    Другие торренты по теме:

  • Шорт-трек. Кубок Мира 2016-2017. 2-й Этап. Солт Лейк Сити (США). 2-й день соревнований (12.11.2016) WEB-DL [H.264 / 720p-LQ]
  • Шорт-трек. Кубок Мира 2016-2017. 2-й Этап. Солт Лейк Сити (США). 3-й день соревнований (2016) WEB-DL
  • Шорт-трек. Кубок Мира 2016-2017. 1-й Этап. Калгари (Канада). 3-й день соревнований (06.11.2016) WEB-DL [H.264 / 720p-LQ]
  • Шорт-трек. Кубок Мира 2016-2017. 1-й Этап. Калгари (Канада). 2-й день соревнований (05.11.2016) WEB-DL [H.264 / 720p-LQ]
  • Шорт-трек. Кубок Мира 2016-2017. Шанхай (Китай). 3-й Этап (2016) WEB-DL [H.264 / 720p-LQ]
  • Шорт-трек. Кубок Мира 2016-2017.4-й Этап. Каннын (Южная Корея). 3-й день соревнований (18.12.2016) WEB-DL [H.264 / 720p-LQ]
  • Шорт-трек. Кубок Мира 2016-2017.4-й Этап. Каннын (Южная Корея). 2-й день соревнований (17.12.2016) WEB-DL [H.264 / 720p-LQ][INT]
  • Шорт-трек. Кубок Мира 2016-2017. 6-й Этап. Минск (Беларусь). 3-й день соревнований (12.02.2017) WEB-DL [H.264 / 720p-LQ]


    • Комментарии (0):

      Информация

      Информация

        Посетители, находящиеся в группе Гости, не могут оставлять комментарии в данной новости.

        ↓ Меню




        ↓ Опрос

        Вы добавили сайт в закладки?
        Да
        Нет


        Top 10 за месяц (Передачи)

        Nat Geo Wild: Дикая Иберия / Wild Iberia [сезон 1 серии 1-4 из 4] (2014) HDTVRip [H.264 / 720p] скачать через торрент бесплатно

        (скачиваний: 6)
        Бренды Советской Эпохи (серии 84 из) (2013-2016) SATRip

        (скачиваний: 5)
        Сергей Тармашев | Что посеешь (2016) [FB2]

        (скачиваний: 5)
        Ольга Гусейнова | Галактика. Принцесса и Генерал (2016) [FB2]

        (скачиваний: 4)
        Короли фанеры (2017.10.07) SATRip (выпуск 4)

        (скачиваний: 4)
        Вести недели (01.10.2017) SATRip

        (скачиваний: 3)
        Международный авиационно-космический салон МАКС-2017 в Жуковском (2017) HDTV [H.264 / 1080p-LQ]

        (скачиваний: 3)
        Алекс Новак, Юрий Трогиянов | Добро с кулаками. Принципы мышления четырехкратного чемпиона мира по кикбоксингу в реальной жизни (2017) [FB2]

        (скачиваний: 3)
        Журнал | Рецепты на бис. Спецвыпуск №1 (19) (2017) [PDF]

        (скачиваний: 3)
        Винсент. Нерассказанная история нашего дяди. Биография Винсента Ван Гога / Vincent - The Untold Story of our Uncle, a biography the life & times of Vincent van Gogh (2012) DVB [H.264] (Серии 1-7 из 7)

        (скачиваний: 3)