.
Авторизация | Регистрация
Хочешь лучшие торренты? Добавь свой email!
Добавить

Торрент скачать бесплатно

» » Студия Союз (2017.10.05) WEB-DL [H.264 / 720p-LQ] (выпуск 9) торрент скачать бесплатно



    Студия Союз (2017.10.05) WEB-DL [H.264 / 720p-LQ] (выпуск 9) торрент скачать бесплатно

    Опубликовал: Админ | Дата: 7-10-2017, 05:00 | Просмотров: 0

    Телекомпания: ТНТ
    Жанр: ТВ-шоу, юмор, импровизация
    Ведущие: Кирилл Коковкин, Айдар Гараев, Виктор Щетков, Александр Алымов, Артем Муратов, Елена Гущина
    Участники: Гарик Харламов, Тимур Батрутдинов, Ксения Бородина, Анна Хилькевич, Екатерина Варнава, Руслан Белый, Юлия Ахмедова, Мигель, Антон Шастун, Екатерина Решетникова, Станислав Ярушин, Александр Гудков, Сергей Матвиенко, Ольга Бузова

    Описание

    Участники шоу Студия СОЮЗ будут меряться музыкальностью, чтобы сделать зрителю очень смешно. По задумке сценаристов, на шоу работают постоянные ведущие, а также регулярно приглашаются другие звезды ТНТ. Их задача: обсудить и максимально удачно высмеять популярную в данный момент песню. На обсуждение выносится все до мелочей: текст, музыка, манера исполнения и другие аспекты музыкального выступления.
    Релиз от: svlesin
    Продолжительность: ~ 00: 47: 37
    Качество видео: WEB-DL
    Субтитры: Отсутствуют
    Видео: AVC, 1280x720 (16: 9), 25.000 fps, 3 516 Kbps (0.153 bit/pixel)
    Аудио: AC-3, 44.1 KHz, 2 ch, 192 Kbps, CBR
    Код: выделить все
    Общее
    Уникальный идентификатор : 173166213039380813935505344404382169778 (0x8246997926AB1C24BEBCB3D0E4CA3AB2)
    Полное имя : D:\[1]\Студия Союз\Студия Союз. Выпуск 09 (2017.10.05)_720.mkv
    Формат : Matroska
    Версия формата : Version 4/Version 2
    Размер файла : 1, 26 Гбайт
    Продолжительность : 47 м.
    Общий поток : 3783 Кбит/сек
    Название фильма : Студия Союз. Выпуск 09 (2017.10.05)_720_nnm-club.name
    Дата кодирования : UTC 2017-10-06 03:37:26
    Программа кодирования : mkvmerge v15.0.0 (\\'Duel with the Devil\\') 64-bit
    Библиотека кодирования : libebml v1.3.5 + libmatroska v1.4.5
    DURATION : 00:47:37.239000000
    NUMBER_OF_FRAMES : 82034
    NUMBER_OF_BYTES : 68573726
    _STATISTICS_WRITING_APP : mkvmerge v15.0.0 (\\'Duel with the Devil\\') 64-bit
    _STATISTICS_WRITING_DATE_UTC : 2017-10-06 03:37:26
    _STATISTICS_TAGS : BPS DURATION NUMBER_OF_FRAMES NUMBER_OF_BYTES
    Видео
    Идентификатор : 1
    Формат : AVC
    Формат/Информация : Advanced Video Codec
    Профиль формата :High@L3.1
    Параметр CABAC формата : Да
    Параметр ReFrames формата : 1 кадр
    Параметр GOP формата : M=1, N=12
    Идентификатор кодека : V_MPEG4/ISO/AVC
    Продолжительность : 47 м.
    Битрейт : 3516 Кбит/сек
    Ширина : 1280 пикселей
    Высота : 720 пикселей
    Соотношение сторон : 16:9
    Режим частоты кадров : Постоянный
    Частота кадров : 25, 000 кадров/сек
    Стандарт вещания : Component
    Цветовое пространство : YUV
    Субдискретизация насыщенности : 4:2:0
    Битовая глубина : 8 бит
    Тип развёртки : Прогрессивная
    Бит/(Пиксели*Кадры) : 0.153
    Размер потока : 1, 17 Гбайт (93%)
    Default : Да
    Forced : Нет
    Цветовой диапазон : Limited
    Аудио
    Идентификатор : 2
    Формат : AC-3
    Формат/Информация : Audio Coding 3
    Расширение режима : CM (complete main)
    Параметр Endianness формата : Big
    Идентификатор кодека : A_AC3
    Продолжительность : 47 м.
    Вид битрейта : Постоянный
    Битрейт : 192 Кбит/сек
    Каналы : 2 канала
    Расположение каналов : Front: L R
    Частота : 44, 1 КГц
    Битовая глубина : 16 бит
    Метод сжатия : С потерями
    Размер потока : 65, 4 Мбайт (5%)
    Default : Да
    Forced : Нет

    Скриншоты для ознакомления



    Все одноименные релизы в Клубе
    Время раздачи: 24/7. До первых 5 скачавших.
    Прямая ссылка скачивания через uTorrent


    Студия Союз (2017.10.05) WEB-DL [H.264/720p-LQ] (выпуск 9)
    загрузка...
    Рейтинг →
     (голосов: 1, оценка 4/5, голосовать можно 1 раз )

    Другие торренты по теме:

  • Студия Союз (2017.08.10) HDTV [H.264 / 1080p-LQ] (выпуск 1)
  • Студия Союз (2017.08.10) WEB-DL [H.264 / 720p-LQ] (выпуск 1)
  • Студия Союз (2017.08.10) SATRip (выпуск 1)
  • Студия Союз (2017.08.17) SATRip (выпуск 2)
  • Студия Союз (2017.08.17) HDTV [H.264 / 1080p-LQ] (выпуск 2)
  • Студия Союз (2017.08.17) WEB-DL [H.264 / 720p-LQ] (выпуск 2)
  • Студия Союз (2017.08.24) SATRip (выпуск 3)
  • Студия Союз (2017.08.24) HDTV [H.264 / 1080p-LQ] (выпуск 3)


    • Комментарии (0):

      Информация

      Информация

        Посетители, находящиеся в группе Гости, не могут оставлять комментарии в данной новости.

        ↓ Меню




        ↓ Опрос

        Вы добавили сайт в закладки?
        Да
        Нет


        Top 10 за месяц (Передачи)

        Nat Geo Wild: Дикая Иберия / Wild Iberia [сезон 1 серии 1-4 из 4] (2014) HDTVRip [H.264 / 720p] скачать через торрент бесплатно

        (скачиваний: 6)
        Бренды Советской Эпохи (серии 84 из) (2013-2016) SATRip

        (скачиваний: 5)
        Сергей Тармашев | Что посеешь (2016) [FB2]

        (скачиваний: 5)
        Ольга Гусейнова | Галактика. Принцесса и Генерал (2016) [FB2]

        (скачиваний: 4)
        Короли фанеры (2017.10.07) SATRip (выпуск 4)

        (скачиваний: 4)
        Вести недели (01.10.2017) SATRip

        (скачиваний: 3)
        Международный авиационно-космический салон МАКС-2017 в Жуковском (2017) HDTV [H.264 / 1080p-LQ]

        (скачиваний: 3)
        Алекс Новак, Юрий Трогиянов | Добро с кулаками. Принципы мышления четырехкратного чемпиона мира по кикбоксингу в реальной жизни (2017) [FB2]

        (скачиваний: 3)
        Журнал | Рецепты на бис. Спецвыпуск №1 (19) (2017) [PDF]

        (скачиваний: 3)
        Винсент. Нерассказанная история нашего дяди. Биография Винсента Ван Гога / Vincent - The Untold Story of our Uncle, a biography the life & times of Vincent van Gogh (2012) DVB [H.264] (Серии 1-7 из 7)

        (скачиваний: 3)