.
Авторизация | Регистрация
Хочешь лучшие торренты? Добавь свой email!
Добавить

Торрент скачать бесплатно

» » Студия Союз (2017.10.05) HDTV [H.264 / 1080p-LQ] (выпуск 9) торрент скачать бесплатно



    Студия Союз (2017.10.05) HDTV [H.264 / 1080p-LQ] (выпуск 9) торрент скачать бесплатно

    Опубликовал: Админ | Дата: 7-10-2017, 05:00 | Просмотров: 0

    Телекомпания: ТНТ HD
    Жанр: ТВ-шоу, юмор, импровизация
    Ведущие: Кирилл Коковкин, Айдар Гараев, Виктор Щетков, Александр Алымов, Артем Муратов, Елена Гущина
    Участники: Гарик Харламов, Тимур Батрутдинов, Ксения Бородина, Анна Хилькевич, Екатерина Варнава, Руслан Белый, Юлия Ахмедова, Мигель, Антон Шастун, Екатерина Решетникова, Станислав Ярушин, Александр Гудков, Сергей Матвиенко, Ольга Бузова

    Описание

    Участники шоу Студия СОЮЗ будут меряться музыкальностью, чтобы сделать зрителю очень смешно. По задумке сценаристов, на шоу работают постоянные ведущие, а также регулярно приглашаются другие звезды ТНТ. Их задача: обсудить и максимально удачно высмеять популярную в данный момент песню. На обсуждение выносится все до мелочей: текст, музыка, манера исполнения и другие аспекты музыкального выступления.
    Релиз от: 25Kuzmich
    Продолжительность: ~ 00: 47: 37
    Качество видео: HDTV
    Субтитры: Отсутствуют
    Видео: AVC, 1920x1080 (16: 9), 25.000 fps, 7 741 Kbps (0.149 bit/pixel)
    Аудио: MP2, 48.0 KHz, 2 ch, 192 Kbps, CBR
    Код: выделить все
    Общее
    Идентификатор : 1 (0x1)
    Полное имя : D:\[1]\Студия Союз\Студия Союз. Выпуск 09 (2017.10.05)_1080.ts
    Формат : MPEG-TS
    Размер файла : 2, 78 Гбайт
    Продолжительность : 47 м.
    Режим общего битрейта : Переменный
    Общий поток : 8348 Кбит/сек
    Видео
    Идентификатор : 207 (0xCF)
    Идентификатор меню : 2207 (0x89F)
    Формат : AVC
    Формат/Информация : Advanced Video Codec
    Профиль формата : High@L4
    Параметр CABAC формата : Да
    Параметр ReFrames формата : 4 кадра
    Параметр GOP формата : M=4, N=28
    Идентификатор кодека : 27
    Продолжительность : 47 м.
    Битрейт : 7741 Кбит/сек
    Ширина : 1920 пикселей
    Высота : 1080 пикселей
    Соотношение сторон : 16:9
    Частота кадров : 25, 000 кадров/сек
    Стандарт вещания : Component
    Цветовое пространство : YUV
    Субдискретизация насыщенности : 4:2:0
    Битовая глубина : 8 бит
    Тип развёртки : Чересстрочная
    Порядок развёртки : Верхнее поле первое
    Бит/(Пиксели*Кадры) : 0.149
    Размер потока : 2, 57 Гбайт (93%)
    Цветовой диапазон : Limited
    Основные цвета : BT.709
    Характеристики трансфера : BT.709
    Коэффициенты матрицы : BT.709
    Аудио
    Идентификатор : 307 (0x133)
    Идентификатор меню : 2207 (0x89F)
    Формат : MPEG Audio
    Версия формата : Version 1
    Профиль формата : Layer 2
    Идентификатор кодека : 3
    Продолжительность : 47 м.
    Вид битрейта : Постоянный
    Битрейт : 192 Кбит/сек
    Каналы : 2 канала
    Частота : 48, 0 КГц
    Метод сжатия : С потерями
    Задержка видео : -120 мс.
    Размер потока : 65, 4 Мбайт (2%)
    Язык : Russian

    Скриншоты для ознакомления



    Все одноименные релизы в Клубе
    Время раздачи: 24/7. До первых 5 скачавших.
    Прямая ссылка скачивания через uTorrent


    Студия Союз (2017.10.05) HDTV [H.264/1080p-LQ] (выпуск 9)
    загрузка...
    Рейтинг →
     (голосов: 1, оценка 4/5, голосовать можно 1 раз )

    Другие торренты по теме:

  • Студия Союз (2017.08.10) HDTV [H.264 / 1080p-LQ] (выпуск 1)
  • Студия Союз (2017.08.10) WEB-DL [H.264 / 720p-LQ] (выпуск 1)
  • Студия Союз (2017.08.10) SATRip (выпуск 1)
  • Студия Союз (2017.08.17) SATRip (выпуск 2)
  • Студия Союз (2017.08.17) HDTV [H.264 / 1080p-LQ] (выпуск 2)
  • Студия Союз (2017.08.17) WEB-DL [H.264 / 720p-LQ] (выпуск 2)
  • Студия Союз (2017.08.24) SATRip (выпуск 3)
  • Студия Союз (2017.08.24) HDTV [H.264 / 1080p-LQ] (выпуск 3)


    • Комментарии (0):

      Информация

      Информация

        Посетители, находящиеся в группе Гости, не могут оставлять комментарии в данной новости.

        ↓ Меню




        ↓ Опрос

        Вы добавили сайт в закладки?
        Да
        Нет


        Top 10 за месяц (Передачи)