.
Авторизация | Регистрация
Хочешь лучшие торренты? Добавь свой email!
Добавить

Торрент скачать бесплатно

» » Уральские пельмени. Королевство кривых кулис - 2 (2017.10.06) SATRip торрент скачать бесплатно



    Уральские пельмени. Королевство кривых кулис - 2 (2017.10.06) SATRip торрент скачать бесплатно

    Опубликовал: Админ | Дата: 7-10-2017, 05:00 | Просмотров: 0

    Телекомпания: СТС
    Жанр: Юмор
    В ролях:
    Дмитрий Брекоткин, Сергей Ершов, Сергей Исаев, Сергей Калугин, Вячеслав Мясников, Александр Попов, Андрей Рожков, Дмитрий Соколов, Максим Ярица, Юля Михалкова и др.

    Описание

    Весёлые парни в мандариновых рубашках не дадут соскучиться и подарят отличное настроение всей семье. У юмора Уральских пельменей нет возрастных ограничений, они избегают шуток ниже пояса и на их концертах пятилетние дети смеются рядом с 50-ти летними взрослыми. Новое комедийное шоу включает в себя как самостоятельные сценические истории, так и импровизации с залом, а также смешные сценки со звёздами, которые пришли посмотреть на любимую команду и неожиданно для себя оказались на сцене.

    Возраст: 12+ (зрителям, достигшим 12 лет)
    Рейтинг MPAA: PG (рекомендуется присутствие родителей)

    Релиз от: Giggs
    Продолжительность: 01: 09: 18
    Качество видео: SATRip
    Субтитры: Отсутствуют
    Видео: MPEG4, XviD, 720x400 (16: 9), 25.000 fps, 1 800 Kbps (0.250 bit/pixel)
    Аудио: MP3, 48.0 KHz, 2 ch, 128 Kbps, CBR
    Код: выделить все
    Общее
    Полное имя : D:\[1]\Уральские пельмени\Уральские пельмени. Королевство кривых кулис. Часть 2 (2017.10.06).avi
    Формат : AVI
    Формат/Информация : Audio Video Interleave
    Размер файла : 961 Мбайт
    Продолжительность : 1 ч. 9 м.
    Общий поток : 1938 Кбит/сек
    Программа кодирования : VirtualDubMod 1.5.10.3 (build 2550/release)
    Библиотека кодирования : VirtualDubMod build 2550/release
    Видео
    Идентификатор : 0
    Формат : MPEG-4 Visual
    Профиль формата : Advanced Simple@L5
    Параметр BVOP формата : 2
    Параметр QPel формата : Нет
    Параметр GMC формата : Без точки перехода
    Параметр матрицы формата : Default (MPEG)
    Идентификатор кодека : XVID
    Идентификатор кодека/Подсказка : XviD
    Продолжительность : 1 ч. 9 м.
    Битрейт : 1800 Кбит/сек
    Ширина : 720 пикселей
    Высота : 400 пикселей
    Соотношение сторон : 16:9
    Частота кадров : 25, 000 кадров/сек
    Цветовое пространство : YUV
    Субдискретизация насыщенности : 4:2:0
    Битовая глубина : 8 бит
    Тип развёртки : Прогрессивная
    Метод сжатия : С потерями
    Бит/(Пиксели*Кадры) : 0.250
    Размер потока : 892 Мбайт (93%)
    Библиотека кодирования : XviD 1.2.1 (UTC 2008-12-04)
    Аудио
    Идентификатор : 1
    Формат : MPEG Audio
    Версия формата : Version 1
    Профиль формата : Layer 3
    Идентификатор кодека : 55
    Идентификатор кодека/Подсказка : MP3
    Продолжительность : 1 ч. 9 м.
    Вид битрейта : Постоянный
    Битрейт : 128 Кбит/сек
    Каналы : 2 канала
    Частота : 48, 0 КГц
    Метод сжатия : С потерями
    Размер потока : 63, 5 Мбайт (7%)
    Выравнивание : Соединение по промежуткам
    Продолжительность промежутка : 40 мс. (1, 00 видеокадр)
    Время предзагрузки промежутка : 504 мс.
    Библиотека кодирования : LAME3.99r
    Настройки программы : -m s -V 4 -q 2 -lowpass 17 -b 128
    Не пропусти новое шоу:
    Уральские пельмени королевство кривых кулис это программа, которую делают удивительные люди, они настоящие мастера юмора. Время им ни по чем, фанаты их обожают. Их юмор очень высокого качества и в каждом шоу есть что-то новое и уникальное, яркое и свежее, ни на что не похожее. Посмотрев эти яркие и смешные номера, телезрители не останутся равнодушными

    Скриншоты для ознакомления



    Все одноименные релизы в Клубе
    Время раздачи: 24/7. До первых 5 скачавших.
    Прямая ссылка скачивания через uTorrent


    Уральские пельмени. Королевство кривых кулис - 2 (2017.10.06) SATRip
    загрузка...
    Рейтинг →
     (голосов: 1, оценка 5/5, голосовать можно 1 раз )

    Другие торренты по теме:

  • Уральские пельмени (2003-2014.12.12) SATRip [Обновляемая] скачать через торрент бесплатно
  • Уральские пельмени. Виза есть - ума не надо (2014.12.12) WEB-DL [H.264 / 1080p-LQ] скачать через торрент бесплатно
  • Уральские пельмени. Виза есть - ума не надо (2014.12.12) WEB-DLRip [H.264 / 720p]
  • Уральские пельмени. Волшебники страны ОЙ! (2014.12.19) WEB-DLRip [H.264 / 720p-LQ]
  • Уральские пельмени. Волшебники страны ОЙ! (2014.12.19) SATRip
  • Уральские пельмени. Музыка нас слизала (2014.12.26) WEBRip [H.264 / 720p] скачать через торрент бесплатно
  • Уральские пельмени. Музыка нас слизала (2014.12.26) SATRip скачать через торрент бесплатно
  • Уральские пельмени. Волшебники страны ОЙ! (2014.12.19) WEB-DLRip [H.264 / 1080p-LQ] скачать через торрент бесплатно


    • Комментарии (0):

      Информация

      Информация

        Посетители, находящиеся в группе Гости, не могут оставлять комментарии в данной новости.

        ↓ Меню




        ↓ Опрос

        Вы добавили сайт в закладки?
        Да
        Нет


        Top 10 за месяц (Передачи)