.
Авторизация | Регистрация
Хочешь лучшие торренты? Добавь свой email!
Добавить

Торрент скачать бесплатно

» » Златан Ибрагимович / Zlatan Ibrahimovic / Zlatan (2016) HDTV [H.264 / 1080i-LQ] торрент скачать бесплатно




    Златан Ибрагимович / Zlatan Ibrahimovic / Zlatan (2016) HDTV [H.264 / 1080i-LQ] торрент скачать бесплатно

    Опубликовал: Админ | Дата: 7-10-2017, 05:00 | Просмотров: 0

    Телекомпания: Швеция/Discovery Networks Sweden
    Жанр: Документальный, Биография, Спорт
    Участники: Режиссер: Томас Аксельссон

    Описание

    Этот спортсмен выступает за шведскую сборную команду, хотя по происхождению он на 50% хорват и босниец. В отличие от других звезд, он много лет профессионально занимался единоборствами и только затем пошел в большой футбол. И с самого начала своей карьеры Златан находился в стороне от всех, никогда не являясь одним из. Но зато он удивил многих своим талантом, умением забивать немыслимые голы, наносить удары под удивительными углами из невозможных позиций…

    Продолжительность: 01: 26: 35
    Качество видео: HDTV 1080i
    Перевод: Двухголосый закадровый, профессиональный
    Субтитры: отсутствуют
    Видео: AVC/H.264, 1920х1080, ~6672 kbps
    Аудио: MP2, 2 ch, 192 Kbps | DVO

    Общее
    Идентификатор : 16 (0x10)
    Полное имя : Zlatan Ibrahimovic_HD.ts
    Формат : MPEG-TS
    Размер файла : 4, 37 Гбайт
    Продолжительность : 1 ч. 26 м.
    Режим общего битрейта : Переменный
    Общий поток : 7223 Кбит/сек
    Видео
    Идентификатор : 1502 (0x5DE)
    Идентификатор меню : 502 (0x1F6)
    Формат : AVC
    Формат/Информация : Advanced Video Codec
    Профиль формата : High@L4
    Настройки формата : CABAC/3 Ref Frames
    Параметр CABAC формата : Да
    Параметр RefFrames формата : 3 кадра
    Идентификатор кодека : 27
    Продолжительность : 1 ч. 26 м.
    Битрейт : 6672 Кбит/сек
    Ширина : 1920 пикселей
    Высота : 1080 пикселей
    Соотношение сторон : 16: 9
    Частота кадров : 25, 000 кадров/сек
    Стандарт вещания : PAL
    Цветовое пространство : YUV
    Субдискретизация насыщенности : 4: 2: 0
    Битовая глубина : 8 бит
    Тип развёртки : Чересстрочная
    Метод сохранения типа развёртки : Раздельные поля
    Порядок развёртки : Верхнее поле первое
    Бит/(Пиксели*Кадры) : 0.129
    Размер потока : 4, 04 Гбайт (92%)
    Цветовой диапазон : Limited
    Основные цвета : BT.709
    Характеристики трансфера : BT.709
    Коэффициенты матрицы : BT.709
    Аудио
    Идентификатор : 2502 (0x9C6)
    Идентификатор меню : 502 (0x1F6)
    Формат : MPEG Audio
    Версия формата : Version 1
    Профиль формата : Layer 2
    Идентификатор кодека : 4
    Продолжительность : 1 ч. 26 м.
    Вид битрейта : Постоянный
    Битрейт : 192 Кбит/сек
    Каналы : 2 канала
    Частота : 48, 0 КГц
    Метод сжатия : С потерями
    Задержка видео : 142 мс.
    Размер потока : 119 Мбайт (3%)
    Язык : std
    Язык, дополнительно : Clean effects

    Скриншоты для ознакомления



    Все одноименные релизы в Клубе
    Время раздачи: Пн-Пт с 18: 00 до 22: 00 (до появления первых 3-5 скачавших)

    Златан Ибрагимович/Zlatan Ibrahimovic/Zlatan (2016) HDTV [H.264/1080i-LQ]
    загрузка...
    Рейтинг →
     (голосов: 1, оценка 5/5, голосовать можно 1 раз )

    Другие торренты по теме:

  • Златан. Начало / Den unge Zlatan (2015) HDTV [H.264 / 1080i] (DVO)


    • Комментарии (0):

      Информация

      Информация

        Посетители, находящиеся в группе Гости, не могут оставлять комментарии в данной новости.

        ↓ Меню




        ↓ Опрос

        Вы добавили сайт в закладки?
        Да
        Нет


        Top 10 за месяц (Передачи)