.
Авторизация | Регистрация
Хочешь лучшие торренты? Добавь свой email!
Добавить

Торрент скачать бесплатно

» » Monster Energy Nascar Cup Series-2017, Этап 29 - Apache Warrior 400, Dover International Speedway (2017) WEB-DL [H.264 / 720p-LQ] [VO] торрент скачать бесплатно



    Monster Energy Nascar Cup Series-2017, Этап 29 - Apache Warrior 400, Dover International Speedway (2017) WEB-DL [H.264 / 720p-LQ] [VO] торрент скачать бесплатно

    Опубликовал: Админ | Дата: 7-10-2017, 05:00 | Просмотров: 0

    Телекомпания: Premier Sports
    Жанр: Спорт

    Описание

    29 этап Monster Energy Nascar Cup Series, Dover International Speedway, Apache Warrior 400 (400 laps, 400 miles).
    Релиз от:
    Продолжительность: 04: 04: 00
    Качество видео: WEB-DL
    Перевод: Двуголосый закадровый, любительский
    Язык: Русский
    Видео: AVC/H.264, 1280х720, ~2250 Kbps
    Аудио: AAC, 2 ch, 256 Kbps

    General
    Complete name : E: \Записи телевизионных шоу\Разное\Monster Energy Nascar Cup Series, Этап 29 - Apache Warrior 400 (HD 720p, 01.10.2017) Русская озвучка, 545TV, A21 Network.mp4
    Format : MPEG-4
    Format profile : Base Media
    Codec ID : isom (isom/iso2/avc1/mp41)
    File size : 4.29 GiB
    Duration : 4 h 4 min
    Overall bit rate : 2 518 kb/s
    Writing application : Lavf56.30.100
    Video
    ID : 1
    Format : AVC
    Format/Info : Advanced Video Codec
    Format profile : High@L3.1
    Format settings, CABAC : Yes
    Format settings, ReFrames : 3 frames
    Format settings, GOP : M=4, N=60
    Codec ID : avc1
    Codec ID/Info : Advanced Video Coding
    Duration : 4 h 4 min
    Bit rate : 2 250 kb/s
    Width : 1 280 pixels
    Height : 720 pixels
    Display aspect ratio : 16: 9
    Frame rate mode : Constant
    Frame rate : 25.000 FPS
    Color space : YUV
    Chroma subsampling : 4: 2: 0
    Bit depth : 8 bits
    Scan type : Progressive
    Bits/(Pixel*Frame) : 0.098
    Stream size : 3.84 GiB (90%)
    Title : h264 1280x720 16/9
    Writing library : x264 core 142 r2455 021c0dc
    Encoding settings : cabac=1/ref=4/deblock=1: 2: 2/analyse=0x3: 0x113/me=dia/subme=2/psy=1/psy_rd=1.00: 0.00/mixed_ref=1/me_range=16/chroma_me=1/trellis=0/8x8dct=1/cqm=0/deadzone=21, 11/fast_pskip=1/chroma_qp_offset=0/threads=36/lookahead_threads=5/sliced_threads=0/nr=0/decimate=1/interlaced=0/bluray_compat=0/constrained_intra=0/bframes=3/b_pyramid=1/b_adapt=1/b_bias=0/direct=1/weightb=1/open_gop=0/weightp=2/keyint=60/keyint_min=25/scenecut=0/intra_refresh=0/rc_lookahead=40/rc=abr/mbtree=1/bitrate=2250/ratetol=1.0/qcomp=0.60/qpmin=10/qpmax=51/qpstep=4/ip_ratio=0.91/aq=1: 1.00
    Audio
    ID : 2
    Format : AAC
    Format/Info : Advanced Audio Codec
    Format profile : LC
    Codec ID : 40
    Duration : 4 h 4 min
    Duration_FirstFrame : 34 ms
    Bit rate mode : Constant
    Bit rate : 256 kb/s
    Channel(s) : 2 channels
    Channel positions : Front: L R
    Sampling rate : 44.1 kHz
    Frame rate : 43.066 FPS (1024 spf)
    Compression mode : Lossy
    Stream size : 447 MiB (10%)
    Title : aac 44100Hz 2Ch.
    Default : Yes
    Alternate group : 1

    Скриншоты для ознакомления



    Все одноименные релизы в Клубе
    Время раздачи: с 10.00 до 0.00 (до появления первых 3-5 скачавших)
    Прямая ссылка скачивания через uTorrent


    Monster Energy Nascar Cup Series-2017, Этап 29 - Apache Warrior 400, Dover International Speedway (2017) WEB-DL [H.264/720p-LQ] [VO]
    загрузка...
    Рейтинг →
     (голосов: 1, оценка 3/5, голосовать можно 1 раз )

    Другие торренты по теме:

  • Monster Energy Nascar Cup Series-2017, Этап 31 - Alabama 500, Talladega Superspeedway (2017) WEB-DL [H.264 / 720p-LQ] [VO]
  • Monster Energy NASCAR Cup Series 2017 / The Clash / Daytona / Гонка / (2017) HDTVRip [H.264 / 720p-LQ]
  • Monster Energy NASCAR Cup Series 2017 / Этап 1 - Daytona / Гонка / (2017) HDTVRip [H.264 / 720p-LQ]
  • Monster Energy NASCAR Cup Series 2017 / Этап 2 - Atlanta / Гонка / (2017) HDTVRip [H.264 / 480p-LQ]
  • Monster Energy NASCAR Cup Series 2017. Этап 4 - Phoenix. Гонка (2017) HDTVRip [H.264 / 720p-LQ]
  • Monster Energy NASCAR Cup Series 2017. Этап 5 - Fontana. Гонка (2017) HDTVRip [H.264 / 720p-LQ]
  • Monster Energy NASCAR Cup Series 2017. Этап 6 - Martinsville. Гонка (2017) WEBRip [H.264 / 720p-LQ]
  • Monster Energy NASCAR Cup Series 2017. Этап 7 - Texas. Гонка (2017) WEBRip [H.264 / 720p-LQ] [VO]


    • Комментарии (0):

      Информация

      Информация

        Посетители, находящиеся в группе Гости, не могут оставлять комментарии в данной новости.

        ↓ Меню




        ↓ Опрос

        Вы добавили сайт в закладки?
        Да
        Нет


        Top 10 за месяц (Передачи)

        Nat Geo Wild: Дикая Иберия / Wild Iberia [сезон 1 серии 1-4 из 4] (2014) HDTVRip [H.264 / 720p] скачать через торрент бесплатно

        (скачиваний: 6)
        Бренды Советской Эпохи (серии 84 из) (2013-2016) SATRip

        (скачиваний: 5)
        Сергей Тармашев | Что посеешь (2016) [FB2]

        (скачиваний: 5)
        Ольга Гусейнова | Галактика. Принцесса и Генерал (2016) [FB2]

        (скачиваний: 4)
        Короли фанеры (2017.10.07) SATRip (выпуск 4)

        (скачиваний: 4)
        Вести недели (01.10.2017) SATRip

        (скачиваний: 3)
        Международный авиационно-космический салон МАКС-2017 в Жуковском (2017) HDTV [H.264 / 1080p-LQ]

        (скачиваний: 3)
        Алекс Новак, Юрий Трогиянов | Добро с кулаками. Принципы мышления четырехкратного чемпиона мира по кикбоксингу в реальной жизни (2017) [FB2]

        (скачиваний: 3)
        Журнал | Рецепты на бис. Спецвыпуск №1 (19) (2017) [PDF]

        (скачиваний: 3)
        Винсент. Нерассказанная история нашего дяди. Биография Винсента Ван Гога / Vincent - The Untold Story of our Uncle, a biography the life & times of Vincent van Gogh (2012) DVB [H.264] (Серии 1-7 из 7)

        (скачиваний: 3)