.
Авторизация | Регистрация
Хочешь лучшие торренты? Добавь свой email!
Добавить

Торрент скачать бесплатно

» » КВН-2017. Летний Кубок в Астане (2017.09.10) WEB-DL [H.264 / 720p-LQ] торрент скачать бесплатно




    КВН-2017. Летний Кубок в Астане (2017.09.10) WEB-DL [H.264 / 720p-LQ] торрент скачать бесплатно

    Опубликовал: Админ | Дата: 12-09-2017, 05:00 | Просмотров: 0

    Телекомпания: Первый канал HD
    Жанр: Юмор
    Ведущий: Александр Масляков
    Жюри: Юлий Гусман, Екатерина Стриженова, Байгали Серкебаев, Михаил Галустян, Сергей Светлаков, Семен Слепаков, Валдис Пельш.

    Описание

    Что такое КВН, знают, без сомнения, все. Прикольно все это наверно придумал Кравчук потратив достаточно времени. В КВН играют во всем мире, это прежде всего молодежная игра. Постоянные конкурсные задания: Визитная карточка, Разминка, Конкурс капитанов, Музыкальный конкурс, Домашнее задание. Игру команд оценивает профессиональное жюри — люди, у которых с чувством юмора все в порядке, многие из них раньше сами играли в КВН. Среди членов жюри были Константин Эрнст, Леонид Парфенов, Юлий Гусман, Леонид Ярмольник, Валдис Пельш, Сергей Шолохов, Геннадий Хазанов и другие. О таком странном сюжете не догадывалась даже Верка Сердючка. Кроме самих игр проводятся ежегодные встречи: фестиваль команд КВН (с 1990 г., семь раз фестиваль проходил в г.Сочи), музыкальный фестиваль КВН, летний кубок КВН, международные товарищеские игры в КВН. Сборная КВН играет со сборными других стран. Уже состоялись игры между сборной КВН и сборными Америки, Австралии, Израиля... Игра в КВН для многих становится профессией, а многие благодаря игре связывают жизнь с искусством. Из КВН вышли: Леонид Якубович, Михаил Марфин, Татьяна Лазарева, Олег Филимонов, Юлий Гусман и многие другие.
    Релиз от: svlesin
    Продолжительность: 02: 12: 01
    Качество видео: WEB-DL
    Субтитры: Отсутствуют
    Видео: AVC, 1280x720 (16: 9), 25.000 fps, 2 103 Kbps (0.091 bit/pixel)
    Аудио: AC-3, 44.1 KHz, 2 ch, 192 Kbps, CBR
    Код: выделить все
    Общее
    Уникальный идентификатор : 238032233418804216002176243809236528054 (0xB3135732064BBC7DB130FB3F652FABB6)
    Полное имя : D:[1]КВНКВН-2017. Высшая лига. Летний кубок в Астане (2017.09.10)_720.mkv
    Формат : Matroska
    Версия формата : Version 4/Version 2
    Размер файла : 2, 16 Гбайт
    Продолжительность : 2 ч. 12 м.
    Общий поток : 2341 Кбит/сек
    Название фильма : КВН-2017. Высшая лига. Летний кубок в Астане (2017.09.10)_720_nnm-club.name
    Дата кодирования : UTC 2017-09-11 03:35:08
    Программа кодирования : mkvmerge v15.0.0 (\'Duel with the Devil\') 64-bit
    Библиотека кодирования : libebml v1.3.5 + libmatroska v1.4.5
    DURATION : 02:12:01.929000000
    NUMBER_OF_FRAMES : 227446
    NUMBER_OF_BYTES : 190126288
    _STATISTICS_WRITING_APP : mkvmerge v15.0.0 (\'Duel with the Devil\') 64-bit
    _STATISTICS_WRITING_DATE_UTC : 2017-09-11 03:35:08
    _STATISTICS_TAGS : BPS DURATION NUMBER_OF_FRAMES NUMBER_OF_BYTES
    Видео
    Идентификатор : 1
    Формат : AVC
    Формат/Информация : Advanced Video Codec
    Профиль формата :Main@L3.1
    Параметр CABAC формата : Да
    Параметр ReFrames формата : 3 кадра
    Идентификатор кодека : V_MPEG4/ISO/AVC
    Продолжительность : 2 ч. 12 м.
    Битрейт : 2103 Кбит/сек
    Ширина : 1280 пикселей
    Высота : 720 пикселей
    Соотношение сторон : 16:9
    Режим частоты кадров : Постоянный
    Частота кадров : 25, 000 кадров/сек
    Цветовое пространство : YUV
    Субдискретизация насыщенности : 4:2:0
    Битовая глубина : 8 бит
    Тип развёртки : Прогрессивная
    Бит/(Пиксели*Кадры) : 0.091
    Размер потока : 1, 94 Гбайт (90%)
    Default : Да
    Forced : Нет
    Цветовой диапазон : Limited
    Основные цвета : BT.709
    Характеристики трансфера : BT.709
    Коэффициенты матрицы : BT.709
    Аудио
    Идентификатор : 2
    Формат : AC-3
    Формат/Информация : Audio Coding 3
    Расширение режима : CM (complete main)
    Параметр Endianness формата : Big
    Идентификатор кодека : A_AC3
    Продолжительность : 2 ч. 12 м.
    Вид битрейта : Постоянный
    Битрейт : 192 Кбит/сек
    Каналы : 2 канала
    Расположение каналов : Front: L R
    Частота : 44, 1 КГц
    Битовая глубина : 16 бит
    Метод сжатия : С потерями
    Размер потока : 181 Мбайт (8%)
    Default : Да
    Forced : Нет
    Сборная Камызякского края, Астраханская область
    Азия MIX, Бишкек
    Казахи, Астана
    Городъ Пятигорскъ, Пятигорск

    Скриншоты для ознакомления



    Все одноименные релизы в Клубе
    Время раздачи: 24/7. До первых 5 скачавших.

    КВН-2017. Летний Кубок в Астане (2017.09.10) WEB-DL [H.264/720p-LQ]
    загрузка...
    Рейтинг →
     (голосов: 1, оценка 4/5, голосовать можно 1 раз )

    Другие торренты по теме:

  • КВН-2015. Высшая лига. Летний кубок в Сочи (2015.10.04) HDTVRip скачать через торрент бесплатно
  • КВН-2015. Высшая лига. Летний кубок в Сочи (2015.10.04) HDTV [H.264 / 1080i] скачать через торрент бесплатно
  • КВН-2015. Высшая лига. Летний кубок в Сочи (2015.10.04) SATRip скачать через торрент бесплатно
  • КВН-2016. Высшая лига. Летний Кубок во Владивостоке (2016.10.02) WEB-DL [H.264 / 1080p-LQ]
  • КВН-2016. Высшая лига. Летний кубок во Владивостоке (2016.10.02) WEB-DL [H.264 / 720p-LQ]
  • КВН-2016. Высшая лига. Летний Кубок во Владивостоке (2016.10.02) DVB [H.264]
  • КВН-2016. Высшая лига. Летний кубок во Владивостоке (2016.10.02) SATRip
  • КВН-2016. Высшая лига. Летний Кубок во Владивостоке (2016.10.02) HDTV [H.264 / 1080i]


    • Комментарии (0):

      Информация

      Информация

        Посетители, находящиеся в группе Гости, не могут оставлять комментарии в данной новости.

        ↓ Меню




        ↓ Опрос

        Вы добавили сайт в закладки?
        Да
        Нет


        Top 10 за месяц (Передачи)

        Алексей Широков, Александр Шапочкин | Попаданец 2.0 (2017) [FB2]

        (скачиваний: 10)
        Фигурное катание. Гран-при 2017-2018. 3-й Этап. Кубок Китая 2017. Пекин (Китай). 2 День (04.11.2017) HDTV [H.264 / 1080i-LQ]

        (скачиваний: 8)
        Михаил Задорнов. Лучшее - сборник лучших эстрадных номеров Михаила Задорнова за 30 лет (1984-2014) WEBRip скачать через торрент бесплатно

        (скачиваний: 8)
        Журнал | Всему свету по совету №1 (228) (январь 2017) [PDF]

        (скачиваний: 6)
        Орел и решка. Перезагрузка (2017.11.07) WEB-DL [H.264 / 720p-LQ] (сезон 14: Ибица. Испания)

        (скачиваний: 6)
        Трэвис Хэйли. Адаптивный автомат Калашникова / Travis Haley: Adaptive Kalash (2011) WEBRip [720p-LQ] скачать через торрент бесплатно

        (скачиваний: 5)
        Орел и решка. Перезагрузка (2017.10.30) WEB-DL [H.264 / 720p-LQ] (сезон 14: Барселона. Испания)

        (скачиваний: 5)
        Святитель Феофан Затворник | Собрание сочинений [69 Томов] (2008) [FB2]

        (скачиваний: 5)
        День космических историй. Тот, кто пришел с холода (2016.05.08) SATRip

        (скачиваний: 4)
        Журнал | Рецепты на бис. Спецвыпуск №1 (19) (2017) [PDF]

        (скачиваний: 4)