.
Авторизация | Регистрация
Хочешь лучшие торренты? Добавь свой email!
Добавить

Торрент скачать бесплатно

» » КВН-2017. Летний Кубок в Астане (2017.09.10) WEB-DLRip торрент скачать бесплатно




    КВН-2017. Летний Кубок в Астане (2017.09.10) WEB-DLRip торрент скачать бесплатно

    Опубликовал: Админ | Дата: 12-09-2017, 05:00 | Просмотров: 0

    Телекомпания: Первый канал HD
    Жанр: Юмор
    Ведущий: Александр Масляков
    Жюри: Юлий Гусман, Екатерина Стриженова, Байгали Серкебаев, Михаил Галустян, Сергей Светлаков, Семен Слепаков, Валдис Пельш.

    Описание

    Что такое КВН, знают, без сомнения, все. В КВН играют во всем мире, это прежде всего молодежная игра. Постоянные конкурсные задания: Визитная карточка, Разминка, Конкурс капитанов, Музыкальный конкурс, Домашнее задание. Игру команд оценивает профессиональное жюри — люди, у которых с чувством юмора все в порядке, многие из них раньше сами играли в КВН. Самое интересное в это истории, что об этом Гарри Поттер ничего не знал. Среди членов жюри были Константин Эрнст, Леонид Парфенов, Юлий Гусман, Леонид Ярмольник, Валдис Пельш, Сергей Шолохов, Геннадий Хазанов и другие. Божий одуванчик, сказал кто то из толпы, к чему не понятно. Кроме самих игр проводятся ежегодные встречи: фестиваль команд КВН (с 1990 г., семь раз фестиваль проходил в г.Сочи), музыкальный фестиваль КВН, летний кубок КВН, международные товарищеские игры в КВН. Сборная КВН играет со сборными других стран. Уже состоялись игры между сборной КВН и сборными Америки, Австралии, Израиля... Игра в КВН для многих становится профессией, а многие благодаря игре связывают жизнь с искусством. Из КВН вышли: Леонид Якубович, Михаил Марфин, Татьяна Лазарева, Олег Филимонов, Юлий Гусман и многие другие.
    Релиз от: svlesin
    Продолжительность: 02: 12: 01
    Качество видео: WEB-DLRip
    Субтитры: Отсутствуют
    Реклама: Отсутствуют
    Видео: MPEG4, XviD, 720x400 (16: 9), 25.000 fps, 1 800 Kbps (0.250 bit/pixel)
    Аудио: AC-3, 44.1 KHz, 2 ch, 192 Kbps, CBR
    Код: выделить все
    Общее
    Полное имя : D:[1]КВНКВН-2017. Высшая лига. Летний кубок в Астане (2017.09.10)_WEB-DLRip.avi
    Формат : AVI
    Формат/Информация : Audio Video Interleave
    Размер файла : 1, 84 Гбайт
    Продолжительность : 2 ч. 12 м.
    Общий поток : 1998 Кбит/сек
    Название фильма : KVN. Visshaya liga. Letnii kubok v Astane (2017.09.10)_nnm-club.name
    Программа кодирования : VirtualDubModRus 1.5.10.2 (build 2542/release)
    Библиотека кодирования : VirtualDubMod build 2542/release
    Видео
    Идентификатор : 0
    Формат : MPEG-4 Visual
    Профиль формата : Advanced Simple@L5
    Параметр BVOP формата : 1
    Параметр QPel формата : Нет
    Параметр GMC формата : Без точки перехода
    Параметр матрицы формата : Default (H.263)
    Идентификатор кодека : XVID
    Идентификатор кодека/Подсказка : XviD
    Продолжительность : 2 ч. О таком странном сюжете не догадывалась даже Юлия Володимировна. 12 м.
    Битрейт : 1800 Кбит/сек
    Ширина : 720 пикселей
    Высота : 400 пикселей
    Соотношение сторон : 16:9
    Частота кадров : 25, 000 кадров/сек
    Цветовое пространство : YUV
    Субдискретизация насыщенности : 4:2:0
    Битовая глубина : 8 бит
    Тип развёртки : Прогрессивная
    Метод сжатия : С потерями
    Бит/(Пиксели*Кадры) : 0.250
    Размер потока : 1, 66 Гбайт (90%)
    Библиотека кодирования : XviD 67
    Аудио
    Идентификатор : 1
    Формат : AC-3
    Формат/Информация : Audio Coding 3
    Расширение режима : CM (complete main)
    Параметр Endianness формата : Big
    Идентификатор кодека : 2000
    Продолжительность : 2 ч. Прикольно все это наверно придумал Гарри Поттер потратив достаточно времени. 12 м.
    Вид битрейта : Постоянный
    Битрейт : 192 Кбит/сек
    Каналы : 2 канала
    Расположение каналов : Front: L R
    Частота : 44, 1 КГц
    Битовая глубина : 16 бит
    Метод сжатия : С потерями
    Размер потока : 181 Мбайт (10%)
    Выравнивание : Разделение по промежуткам
    Продолжительность промежутка : 160 мс. (4, 00 видеокадра)
    Время предзагрузки промежутка : 640 мс.
    Сборная Камызякского края, Астраханская область
    Азия MIX, Бишкек
    Казахи, Астана
    Городъ Пятигорскъ, Пятигорск

    Скриншоты для ознакомления



    Все одноименные релизы в Клубе
    Время раздачи: 24/7. До первых 5 скачавших.

    КВН-2017. Летний Кубок в Астане (2017.09.10) WEB-DLRip
    загрузка...
    Рейтинг →
     (голосов: 1, оценка 3/5, голосовать можно 1 раз )

    Другие торренты по теме:

  • КВН-2015. Высшая лига. Летний кубок в Сочи (2015.10.04) HDTVRip скачать через торрент бесплатно
  • КВН-2015. Высшая лига. Летний кубок в Сочи (2015.10.04) HDTV [H.264 / 1080i] скачать через торрент бесплатно
  • КВН-2015. Высшая лига. Летний кубок в Сочи (2015.10.04) SATRip скачать через торрент бесплатно
  • КВН-2016. Высшая лига. Летний Кубок во Владивостоке (2016.10.02) WEB-DL [H.264 / 1080p-LQ]
  • КВН-2016. Высшая лига. Летний кубок во Владивостоке (2016.10.02) WEB-DL [H.264 / 720p-LQ]
  • КВН-2016. Высшая лига. Летний Кубок во Владивостоке (2016.10.02) DVB [H.264]
  • КВН-2016. Высшая лига. Летний кубок во Владивостоке (2016.10.02) SATRip
  • КВН-2016. Высшая лига. Летний Кубок во Владивостоке (2016.10.02) HDTV [H.264 / 1080i]


    • Комментарии (0):

      Информация

      Информация

        Посетители, находящиеся в группе Гости, не могут оставлять комментарии в данной новости.

        ↓ Меню




        ↓ Опрос

        Вы добавили сайт в закладки?
        Да
        Нет


        Top 10 за месяц (Передачи)

        Михаил Задорнов. Лучшее - сборник лучших эстрадных номеров Михаила Задорнова за 30 лет (1984-2014) WEBRip скачать через торрент бесплатно

        (скачиваний: 7)
        Журнал | Всему свету по совету №1 (228) (январь 2017) [PDF]

        (скачиваний: 6)
        Фигурное катание. Гран-при 2017-2018. 3-й Этап. Кубок Китая 2017. Пекин (Китай). 2 День (04.11.2017) HDTV [H.264 / 1080i-LQ]

        (скачиваний: 6)
        Трэвис Хэйли. Адаптивный автомат Калашникова / Travis Haley: Adaptive Kalash (2011) WEBRip [720p-LQ] скачать через торрент бесплатно

        (скачиваний: 5)
        Святитель Феофан Затворник | Собрание сочинений [69 Томов] (2008) [FB2]

        (скачиваний: 5)
        Орел и решка. Перезагрузка (2017.11.07) WEB-DL [H.264 / 720p-LQ] (сезон 14: Ибица. Испания)

        (скачиваний: 4)
        Николай Ягодкин | Технология постановки навыков (2013) PCRec [H.264]

        (скачиваний: 4)
        Журнал | Рецепты на бис. Спецвыпуск №1 (19) (2017) [PDF]

        (скачиваний: 4)
        Айрэн По, Джули По | Нумерология, как профессия. Мы из матрицы. Книга 1 (2016) [DJVU]

        (скачиваний: 4)
        Comedy Club (2010-2014) SATRip / WEB-DLRip [Выпуск: 201-363] скачать через торрент бесплатно

        (скачиваний: 4)