.
Авторизация | Регистрация
Хочешь лучшие торренты? Добавь свой email!
Добавить

Торрент скачать бесплатно

» » Stand Up (2017.08.13) WEB-DL [H.264 / 720p-LQ] (дайджест, выпуск 3) торрент скачать бесплатно




    Stand Up (2017.08.13) WEB-DL [H.264 / 720p-LQ] (дайджест, выпуск 3) торрент скачать бесплатно

    Опубликовал: Админ | Дата: 12-09-2017, 05:00 | Просмотров: 1

    Телекомпания: ТНТ
    Жанр: Юмористическое шоу, Stand up comedy
    Ведущий: Руслан Белый

    Актеры
    Руслан Белый, Слава Комиссаренко, Юлия Ахмедова, Дмитрий Романов, Стас Старовойтов, Тимур Каргинов, Виктор Комаров, Александр Шаляпин

    Описание

    Новое юмористическое шоу в жанре стендап. Здесь люди рассказывают о своих проблемах. Самое интересное в это истории, что об этом Лукашенко ничего не знал. Слава богу, что они у нас есть!
    Релиз от: svlesin
    Продолжительность: ~ 00: 47: 28
    Качество видео: WEB-DL
    Субтитры: Отсутствуют
    Видео: AVC, 1280x720 (16: 9), 25.000 fps, 3 525 Kbps (0.153 bit/pixel)
    Аудио: AC-3, 44.1 KHz, 2 ch, 192 Kbps, CBR
    Код: выделить все
    Общее
    Уникальный идентификатор : 193457718017163685873719125910203153749 (0x918A99E8E9845B2DB49694917B943D55)
    Полное имя : D:[1]Stand UpStand Up. Дайджест 03 (2017.08.13)_720.mkv
    Формат : Matroska
    Версия формата : Version 4/Version 2
    Размер файла : 1, 26 Гбайт
    Продолжительность : 47 м.
    Общий поток : 3792 Кбит/сек
    Название фильма : Stand Up. Дайджест 03 (2017.07.30)_nnm-club.name
    Дата кодирования : UTC 2017-09-11 13:33:55
    Программа кодирования : mkvmerge v15.0.0 (\'Duel with the Devil\') 64-bit
    Библиотека кодирования : libebml v1.3.5 + libmatroska v1.4.5
    DURATION : 00:47:28.044000000
    NUMBER_OF_FRAMES : 81770
    NUMBER_OF_BYTES : 68353044
    _STATISTICS_WRITING_APP : mkvmerge v15.0.0 (\'Duel with the Devil\') 64-bit
    _STATISTICS_WRITING_DATE_UTC : 2017-09-11 13:33:55
    _STATISTICS_TAGS : BPS DURATION NUMBER_OF_FRAMES NUMBER_OF_BYTES
    Видео
    Идентификатор : 1
    Формат : AVC
    Формат/Информация : Advanced Video Codec
    Профиль формата :High@L3.1
    Параметр CABAC формата : Да
    Параметр ReFrames формата : 1 кадр
    Параметр GOP формата : M=1, N=12
    Идентификатор кодека : V_MPEG4/ISO/AVC
    Продолжительность : 47 м.
    Битрейт : 3525 Кбит/сек
    Ширина : 1280 пикселей
    Высота : 720 пикселей
    Соотношение сторон : 16:9
    Режим частоты кадров : Постоянный
    Частота кадров : 25, 000 кадров/сек
    Стандарт вещания : Component
    Цветовое пространство : YUV
    Субдискретизация насыщенности : 4:2:0
    Битовая глубина : 8 бит
    Тип развёртки : Прогрессивная
    Бит/(Пиксели*Кадры) : 0.153
    Размер потока : 1, 17 Гбайт (93%)
    Default : Да
    Forced : Нет
    Цветовой диапазон : Limited
    Аудио
    Идентификатор : 2
    Формат : AC-3
    Формат/Информация : Audio Coding 3
    Расширение режима : CM (complete main)
    Параметр Endianness формата : Big
    Идентификатор кодека : A_AC3
    Продолжительность : 47 м.
    Вид битрейта : Постоянный
    Битрейт : 192 Кбит/сек
    Каналы : 2 канала
    Расположение каналов : Front: L R
    Частота : 44, 1 КГц
    Битовая глубина : 16 бит
    Метод сжатия : С потерями
    Размер потока : 65, 2 Мбайт (5%)
    Default : Да
    Forced : Нет

    Скриншоты для ознакомления



    Все одноименные релизы в Клубе
    Время раздачи: 24/7. До первых 5 скачавших.

    Stand Up (2017.08.13) WEB-DL [H.264/720p-LQ] (дайджест, выпуск 3)
    загрузка...
    Рейтинг →
     (голосов: 1, оценка 4/5, голосовать можно 1 раз )

    Другие торренты по теме:

  • Stand Up. Выпуск №36 (2014.09.28) WEB-DL [H.264 / 720p] [hand made 50fps]
  • Stand Up. Выпуск №37 (2014.10.05) WEB-DL [H.264 / 720p] [hand made 50fps] скачать через торрент бесплатно
  • Stand Up. Выпуск №38 (2014.10.12) WEB-DL [H.264 / 720p] скачать через торрент бесплатно
  • Stand Up. Выпуск №39 (2014.10.19) WEB-DL [H.264 / 720p] [hand made 50fps] скачать через торрент бесплатно
  • Stand Up. Выпуск №40 (2014.10.26) WEB-DL [H.264 / 720p] [hand made 50fps] скачать через торрент бесплатно
  • Stand Up. Выпуск №40 (2014.10.26) WEB-DL [H.264 / 720p] [hand made 50fps] скачать через торрент бесплатно
  • Секс на две ночи / Two Night Stand (2014) WEB-DL [720p] ATV
  • Секс на две ночи / Two Night Stand (2014) WEB-DL [H.264 / 1080p-LQ] скачать через торрент бесплатно


    • Комментарии (0):

      Информация

      Информация

        Посетители, находящиеся в группе Гости, не могут оставлять комментарии в данной новости.

        ↓ Меню




        ↓ Опрос

        Вы добавили сайт в закладки?
        Да
        Нет


        Top 10 за месяц (Передачи)

        Алексей Широков, Александр Шапочкин | Попаданец 2.0 (2017) [FB2]

        (скачиваний: 9)
        Михаил Задорнов. Лучшее - сборник лучших эстрадных номеров Михаила Задорнова за 30 лет (1984-2014) WEBRip скачать через торрент бесплатно

        (скачиваний: 8)
        Орел и решка. Перезагрузка (2017.11.07) WEB-DL [H.264 / 720p-LQ] (сезон 14: Ибица. Испания)

        (скачиваний: 6)
        Фигурное катание. Гран-при 2017-2018. 3-й Этап. Кубок Китая 2017. Пекин (Китай). 2 День (04.11.2017) HDTV [H.264 / 1080i-LQ]

        (скачиваний: 6)
        Журнал | Всему свету по совету №1 (228) (январь 2017) [PDF]

        (скачиваний: 6)
        Святитель Феофан Затворник | Собрание сочинений [69 Томов] (2008) [FB2]

        (скачиваний: 5)
        Трэвис Хэйли. Адаптивный автомат Калашникова / Travis Haley: Adaptive Kalash (2011) WEBRip [720p-LQ] скачать через торрент бесплатно

        (скачиваний: 5)
        Николай Ягодкин | Технология постановки навыков (2013) PCRec [H.264]

        (скачиваний: 4)
        Горная бригада (2014) HDTVRip [720p-LQ] [Серии: 1-12 из 12] скачать через торрент бесплатно

        (скачиваний: 4)
        Орел и решка. Перезагрузка (2017.10.30) WEB-DL [H.264 / 720p-LQ] (сезон 14: Барселона. Испания)

        (скачиваний: 4)