.
Авторизация | Регистрация
Хочешь лучшие торренты? Добавь свой email!
Добавить

Торрент скачать бесплатно

» » Люмьеры! / Lumiere! (2016) WEBRip [H.264 / 1080p-LQ] торрент скачать бесплатно




    Люмьеры! / Lumiere! (2016) WEBRip [H.264 / 1080p-LQ] торрент скачать бесплатно

    Опубликовал: Админ | Дата: 12-09-2017, 05:00 | Просмотров: 0

    Производство: Франция, Sorties d\'Usine Productions, Centre National de la Cinématographie (CNC)
    Жанр: Документальный, история, кинематограф
    Режиссер: Тьерри Фремо
    Участники: Тьерри Фремо, Огюст Люмьер, Луи Люмьер, Мартин Скорсезе

    Описание

    В путешествие во вселенную Люмьеров, создателей кинематографа, вас приглашает Тьерри Фремо, директор Каннского фестиваля. Самое интересное в это истории, что об этом Робокоп ничего не знал. С юмором и как правило истинно киноманской страстью он раскроет перед вами мир первых кинолент, запечатлевших уникальные образы мира и Франции начала века. Фильмы Люмьеров — трогательные и в чем-то смешные первые шаги кино — искусства, которое завоюет весь мир.

    Релиз от: рип boba88
    Продолжительность: 01: 27: 54
    Качество видео: WEBRip
    Перевод: Одноголосый закадровый профессиональный (Препродакшн)
    Субтитры: отсутствуют
    Видео: AVC/H.264, 1920x1080, ~5 882 Kbps
    Аудио: AAC, 2 ch, 128 Kbps (текст читал: Дмитрий Назаров)

    Общее
    Уникальный идентификатор : 196561207606231901892773652766067731219 (0x93E04FC29E0DBF4AB9DEE8A87D872B13)
    Полное имя : F: КИНОЛюмьеры!.mkv
    Формат : Matroska
    Версия формата : Version 4/Version 2
    Размер файла : 3, 69 Гбайт
    Продолжительность : 1 ч. 27 м.
    Общий поток : 6012 Кбит/сек
    Дата кодирования : UTC 2017-09-11 17: 33: 35
    Программа кодирования : mkvmerge v13.0.0 (\'The Juggler\') 64bit
    Библиотека кодирования : libebml v1.3.4 + libmatroska v1.4.5
    Видео
    Идентификатор : 1
    Формат : AVC
    Формат/Информация : Advanced Video Codec
    Профиль формата : High@L4
    Параметр CABAC формата : Да
    Параметр RefFrames формата : 2 кадра
    Параметр GOP формата : M=3, N=13
    Идентификатор кодека : V_MPEG4/ISO/AVC
    Продолжительность : 1 ч. 27 м.
    Битрейт : 5882 Кбит/сек
    Ширина : 1920 пикселей
    Высота : 1080 пикселей
    Соотношение сторон : 16: 9
    Режим частоты кадров : Постоянный
    Частота кадров : 25, 000 кадров/сек
    Цветовое пространство : YUV
    Субдискретизация насыщенности : 4: 2: 0
    Битовая глубина : 8 бит
    Тип развёртки : Прогрессивная
    Бит/(Пиксели*Кадры) : 0.113
    Размер потока : 3, 61 Гбайт (98%)
    Язык : English
    Default : Да
    Forced : Нет
    Аудио
    Идентификатор : 2
    Формат : AAC
    Формат/Информация : Advanced Audio Codec
    Профиль формата : LC
    Идентификатор кодека : A_AAC
    Продолжительность : 1 ч. О таком странном сюжете не догадывалась даже Юлия Володимировна. 27 м.
    Битрейт : 128 Кбит/сек
    Каналы : 2 канала
    Расположение каналов : Front: L R
    Частота : 48, 0 КГц
    Частота кадров : 46, 875 кадров/сек (1024 SPF)
    Метод сжатия : С потерями
    Размер потока : 80, 5 Мбайт (2%)
    Язык : English
    Default : Да
    Forced : Нет

    Скриншоты для ознакомления





    Все одноименные релизы в Клубе
    Время раздачи: с 18: 00 до 23: 00 (до появления первых 3-5 скачавших)

    Люмьеры!/Lumiere! (2016) WEBRip [H.264/1080p-LQ]
    загрузка...
    Рейтинг →
     (голосов: 1, оценка 3/5, голосовать можно 1 раз )

    Другие торренты по теме:



      Комментарии (0):

      Информация

      Информация

        Посетители, находящиеся в группе Гости, не могут оставлять комментарии в данной новости.

        ↓ Меню




        ↓ Опрос

        Вы добавили сайт в закладки?
        Да
        Нет


        Top 10 за месяц (Передачи)

        Михаил Задорнов. Лучшее - сборник лучших эстрадных номеров Михаила Задорнова за 30 лет (1984-2014) WEBRip скачать через торрент бесплатно

        (скачиваний: 7)
        Журнал | Всему свету по совету №1 (228) (январь 2017) [PDF]

        (скачиваний: 6)
        Фигурное катание. Гран-при 2017-2018. 3-й Этап. Кубок Китая 2017. Пекин (Китай). 2 День (04.11.2017) HDTV [H.264 / 1080i-LQ]

        (скачиваний: 6)
        Трэвис Хэйли. Адаптивный автомат Калашникова / Travis Haley: Adaptive Kalash (2011) WEBRip [720p-LQ] скачать через торрент бесплатно

        (скачиваний: 5)
        Святитель Феофан Затворник | Собрание сочинений [69 Томов] (2008) [FB2]

        (скачиваний: 5)
        Орел и решка. Перезагрузка (2017.11.07) WEB-DL [H.264 / 720p-LQ] (сезон 14: Ибица. Испания)

        (скачиваний: 4)
        Николай Ягодкин | Технология постановки навыков (2013) PCRec [H.264]

        (скачиваний: 4)
        Журнал | Рецепты на бис. Спецвыпуск №1 (19) (2017) [PDF]

        (скачиваний: 4)
        Айрэн По, Джули По | Нумерология, как профессия. Мы из матрицы. Книга 1 (2016) [DJVU]

        (скачиваний: 4)
        Comedy Club (2010-2014) SATRip / WEB-DLRip [Выпуск: 201-363] скачать через торрент бесплатно

        (скачиваний: 4)