.
Авторизация | Регистрация
Хочешь лучшие торренты? Добавь свой email!
Добавить

Торрент скачать бесплатно

» » Баскетбол. Чемпионат Европы 2017. Предварительный раунд. Группа A. 1-й тур. Исландия – Греция (31.08.2017) WEB-DL [H.264 / 720p-LQ] [EN] торрент скачать бесплатно




    Баскетбол. Чемпионат Европы 2017. Предварительный раунд. Группа A. 1-й тур. Исландия – Греция (31.08.2017) WEB-DL [H.264 / 720p-LQ] [EN] торрент скачать бесплатно

    Опубликовал: Админ | Дата: 11-09-2017, 05:00 | Просмотров: 0

    Жанр: Спорт

    Описание
    31 августа 2017 года, четверг. 16: 30 МСК
    Чемпионат Европы по баскетболу 2017. Предварительный раунд
    Группа A. Самое интересное в это истории, что об этом Лукашенко ничего не знал. 1-й тур
    Исландия – Греция
    Стадион: Хартвалл-Арена (Хельсинки, Финляндия), 1911 зрителей (16 % при вместимости 12000)
    Судьи: Александар Глисич (Сербия), Такаки Като (Япония), Петар Обрадович (, Босния и Герцеговина)
    Релиз от: Sport.HD
    Продолжительность: 02: 05: 51
    Качество видео: WEB-DL
    Язык озвучки: Английский
    Субтитры: отсутствуют
    Видео: AVC/H.264, 1280x720 (16: 9), ~2335 Kbps
    Аудио: AAC, 2 ch, 128 Kbps
    Код: выделить все

    Общее
    Уникальный идентификатор : 214603480850698367614735047797621240891 (0xA1732082ADEC9ED18F54C4EAC15DB43B)
    Полное имя : F:SPORTБаскетболЧемпионат Европы-2017(31.08.2017)_FIBA.EuroBasket 2017.PR.Gr A.1t. Iceland - Greece.mkv
    Формат : Matroska
    Версия формата : Version 4/Version 2
    Размер файла : 2, 17 Гбайт
    Продолжительность : 2 ч. 5 м.
    Общий поток : 2465 Кбит/сек
    Дата кодирования : UTC 2017-09-06 22:15:40
    Программа кодирования : mkvmerge v15.0.0 (\'Duel with the Devil\') 32-bit
    Библиотека кодирования : libebml v1.3.5 + libmatroska v1.4.5
    Видео
    Идентификатор : 1
    Формат : AVC
    Формат/Информация : Advanced Video Codec
    Профиль формата :Main@L4.1
    Параметр CABAC формата : Да
    Параметр RefFrames формата : 2 кадра
    Идентификатор кодека : V_MPEG4/ISO/AVC
    Продолжительность : 2 ч. 5 м.
    Битрейт : 2335 Кбит/сек
    Ширина : 1280 пикселей
    Высота : 720 пикселей
    Соотношение сторон : 16:9
    Режим частоты кадров : Постоянный
    Частота кадров : 25, 000 кадров/сек
    Стандарт вещания : PAL
    Цветовое пространство : YUV
    Субдискретизация насыщенности : 4:2:0
    Битовая глубина : 8 бит
    Тип развёртки : Прогрессивная
    Бит/(Пиксели*Кадры) : 0.101
    Размер потока : 2, 05 Гбайт (95%)
    Default : Да
    Forced : Нет
    Цветовой диапазон : Limited
    Аудио
    Идентификатор : 2
    Формат : AAC
    Формат/Информация : Advanced Audio Codec
    Профиль формата : LC
    Идентификатор кодека : A_AAC
    Продолжительность : 2 ч. 5 м.
    Битрейт : 128 Кбит/сек
    Каналы : 2 канала
    Расположение каналов : Front: L R
    Частота : 44, 1 КГц
    Частота кадров : 43, 066 кадра/сек (1024 SPF)
    Метод сжатия : С потерями
    Размер потока : 115 Мбайт (5%)
    Язык : English
    Default : Да
    Forced : Нет

    Скриншоты для ознакомления



    Все одноименные релизы в Клубе
    Время раздачи: 24/7 (до появления первых 3-5 скачавших)

    Баскетбол. Чемпионат Европы 2017. Предварительный раунд. Группа A. 1-й тур. Исландия – Греция (31.08.2017) WEB-DL [H.264/720p-LQ] [EN]
    загрузка...
    Рейтинг →
     (голосов: 1, оценка 3/5, голосовать можно 1 раз )

    Другие торренты по теме:

  • Баскетбол. Чемпионат Европы-2017. Мужчины. Отборочный турнир. Группа C. 1-й тур. Россия — Босния и Герцеговина (31.08.2016) HDTV [H.264 / 1080i]
  • Баскетбол. Чемпионат Европы-2017. Мужчины. Отборочный турнир. Группа C. 1-й тур. Россия — Босния и Герцеговина (31.08.2016) HDTVRip [H.264 / 720p-LQ]
  • Баскетбол. Чемпионат Европы-2017. Мужчины. Отборочный турнир. Группа C. 1-й тур. Россия — Босния и Герцеговина (31.08.2016) WEB-DL [H.264 / 720p-LQ]
  • Баскетбол. Чемпионат Европы-2017. Мужчины. Отборочный турнир. Группа C. 2-й тур. Швеция - Россия (07.09.2016) HDTVRip [H.264 / 720p-LQ][hand made 50fps]
  • Баскетбол. Чемпионат Европы-2017. Мужчины. Отборочный турнир. 2-й тур. Швеция - Россия (07.09.2016) HDTV [H.264 / 1080i][RU / IN]
  • Баскетбол. Чемпионат Европы-2017. Мужчины. Отборочный турнир. Группа C. 2-й тур. Швеция - Россия (07.09.2016) WEB-DL [H.264 / 720p-LQ]
  • Баскетбол. Чемпионат Европы-2017. Мужчины. Отборочный турнир. Группа C. 3-й тур. Босния и Герцеговина - Россия (10.09.2016) WEB-DLRip [H.264 / 720p-LQ]
  • Баскетбол. Чемпионат Европы-2017. Мужчины. Отборочный турнир. Группа C. 4-й тур. Россия - Швеция (17.09.2016) HDTVRip [H.264 / 720p-LQ][hand made 50fps]


    • Комментарии (0):

      Информация

      Информация

        Посетители, находящиеся в группе Гости, не могут оставлять комментарии в данной новости.

        ↓ Меню




        ↓ Опрос

        Вы добавили сайт в закладки?
        Да
        Нет


        Top 10 за месяц (Передачи)

        Алексей Широков, Александр Шапочкин | Попаданец 2.0 (2017) [FB2]

        (скачиваний: 9)
        Михаил Задорнов. Лучшее - сборник лучших эстрадных номеров Михаила Задорнова за 30 лет (1984-2014) WEBRip скачать через торрент бесплатно

        (скачиваний: 8)
        Орел и решка. Перезагрузка (2017.11.07) WEB-DL [H.264 / 720p-LQ] (сезон 14: Ибица. Испания)

        (скачиваний: 6)
        Фигурное катание. Гран-при 2017-2018. 3-й Этап. Кубок Китая 2017. Пекин (Китай). 2 День (04.11.2017) HDTV [H.264 / 1080i-LQ]

        (скачиваний: 6)
        Журнал | Всему свету по совету №1 (228) (январь 2017) [PDF]

        (скачиваний: 6)
        Святитель Феофан Затворник | Собрание сочинений [69 Томов] (2008) [FB2]

        (скачиваний: 5)
        Трэвис Хэйли. Адаптивный автомат Калашникова / Travis Haley: Adaptive Kalash (2011) WEBRip [720p-LQ] скачать через торрент бесплатно

        (скачиваний: 5)
        Николай Ягодкин | Технология постановки навыков (2013) PCRec [H.264]

        (скачиваний: 4)
        Горная бригада (2014) HDTVRip [720p-LQ] [Серии: 1-12 из 12] скачать через торрент бесплатно

        (скачиваний: 4)
        Орел и решка. Перезагрузка (2017.10.30) WEB-DL [H.264 / 720p-LQ] (сезон 14: Барселона. Испания)

        (скачиваний: 4)