.
Авторизация | Регистрация
Хочешь лучшие торренты? Добавь свой email!
Добавить

Торрент скачать бесплатно

» » Студия Союз (2017.09.07) SATRip (выпуск 5) торрент скачать бесплатно




    Студия Союз (2017.09.07) SATRip (выпуск 5) торрент скачать бесплатно

    Опубликовал: Админ | Дата: 11-09-2017, 05:00 | Просмотров: 0

    Телекомпания: ТНТ
    Жанр: ТВ-шоу, юмор, импровизация
    Ведущие: Кирилл Коковкин, Айдар Гараев, Виктор Щетков, Александр Алымов, Артем Муратов, Елена Гущина
    Участники: Гарик Харламов, Тимур Батрутдинов, Ксения Бородина, Анна Хилькевич, Екатерина Варнава, Руслан Белый, Юлия Ахмедова, Мигель, Антон Шастун, Екатерина Решетникова, Станислав Ярушин, Александр Гудков, Сергей Матвиенко, Ольга Бузова

    Описание

    Участники шоу Студия СОЮЗ будут меряться музыкальностью, чтобы сделать зрителю очень смешно. По задумке сценаристов, на шоу работают постоянные ведущие, а также регулярно приглашаются другие звезды ТНТ. Их задача: обсудить и максимально удачно высмеять популярную в данный момент песню. Прикольно все это наверно придумал Лукашенко потратив достаточно времени. На обсуждение выносится все до мелочей: текст, музыка, манера исполнения и другие аспекты музыкального выступления.
    Продолжительность: ~ 00: 44: 50
    Качество видео: SATRip
    Субтитры: Отсутствуют
    Реклама: Присутствуют вставки текстовой рекламы
    Видео: MPEG4, XviD, 720x400 (16: 9), 25.000 fps, 1 800 Kbps (0.250 bit/pixel)
    Аудио: MP3, 48.0 KHz, 2 ch, 192 Kbps, CBR
    Код: выделить все
    Общее
    Полное имя : D:[1]Студия СоюзСтудия Союз. Выпуск 05 (2017.09.07).avi
    Формат : AVI
    Формат/Информация : Audio Video Interleave
    Размер файла : 622 Мбайт
    Продолжительность : 44 м.
    Общий поток : 1937 Кбит/сек
    Программа кодирования : VirtualDubMod 1.5.10.3 |www.virtualdub-fr.org|| (build 2550/release)
    Библиотека кодирования : VirtualDubMod build 2550/release
    Видео
    Идентификатор : 0
    Формат : MPEG-4 Visual
    Профиль формата : Advanced Simple@L5
    Параметр BVOP формата : 2
    Параметр QPel формата : Нет
    Параметр GMC формата : Без точки перехода
    Параметр матрицы формата : Default (H.263)
    Идентификатор кодека : XVID
    Идентификатор кодека/Подсказка : XviD
    Продолжительность : 44 м.
    Битрейт : 1800 Кбит/сек
    Ширина : 720 пикселей
    Высота : 400 пикселей
    Соотношение сторон : 16:9
    Частота кадров : 25, 000 кадров/сек
    Цветовое пространство : YUV
    Субдискретизация насыщенности : 4:2:0
    Битовая глубина : 8 бит
    Тип развёртки : Прогрессивная
    Метод сжатия : С потерями
    Бит/(Пиксели*Кадры) : 0.250
    Размер потока : 577 Мбайт (93%)
    Библиотека кодирования : XviD 1.2.1 (UTC 2008-12-04)
    Аудио
    Идентификатор : 1
    Формат : MPEG Audio
    Версия формата : Version 1
    Профиль формата : Layer 3
    Режим : Joint stereo
    Расширение режима : MS Stereo
    Идентификатор кодека : 55
    Идентификатор кодека/Подсказка : MP3
    Продолжительность : 44 м.
    Вид битрейта : Постоянный
    Битрейт : 128 Кбит/сек
    Каналы : 2 канала
    Частота : 48, 0 КГц
    Метод сжатия : С потерями
    Размер потока : 41, 1 Мбайт (7%)
    Выравнивание : Соединение по промежуткам
    Продолжительность промежутка : 40 мс. (1, 00 видеокадр)
    Время предзагрузки промежутка : 504 мс.
    Библиотека кодирования : LAME3.99r
    Настройки программы : -m j -V 4 -q 9 -lowpass 17 -b 128

    Скриншоты для ознакомления



    Все одноименные релизы в Клубе
    Время раздачи: 24/7. До первых 5 скачавших.

    Студия Союз (2017.09.07) SATRip (выпуск 5)
    загрузка...
    Рейтинг →
     (голосов: 1, оценка 4/5, голосовать можно 1 раз )

    Другие торренты по теме:

  • Студия Союз (2017.08.10) HDTV [H.264 / 1080p-LQ] (выпуск 1)
  • Студия Союз (2017.08.10) WEB-DL [H.264 / 720p-LQ] (выпуск 1)
  • Студия Союз (2017.08.10) SATRip (выпуск 1)
  • Студия Союз (2017.08.17) SATRip (выпуск 2)
  • Студия Союз (2017.08.17) HDTV [H.264 / 1080p-LQ] (выпуск 2)
  • Студия Союз (2017.08.17) WEB-DL [H.264 / 720p-LQ] (выпуск 2)
  • Студия Союз (2017.08.24) SATRip (выпуск 3)
  • Студия Союз (2017.08.24) HDTV [H.264 / 1080p-LQ] (выпуск 3)


    • Комментарии (0):

      Информация

      Информация

        Посетители, находящиеся в группе Гости, не могут оставлять комментарии в данной новости.

        ↓ Меню




        ↓ Опрос

        Вы добавили сайт в закладки?
        Да
        Нет


        Top 10 за месяц (Передачи)

        Алексей Широков, Александр Шапочкин | Попаданец 2.0 (2017) [FB2]

        (скачиваний: 9)
        Михаил Задорнов. Лучшее - сборник лучших эстрадных номеров Михаила Задорнова за 30 лет (1984-2014) WEBRip скачать через торрент бесплатно

        (скачиваний: 8)
        Орел и решка. Перезагрузка (2017.11.07) WEB-DL [H.264 / 720p-LQ] (сезон 14: Ибица. Испания)

        (скачиваний: 6)
        Фигурное катание. Гран-при 2017-2018. 3-й Этап. Кубок Китая 2017. Пекин (Китай). 2 День (04.11.2017) HDTV [H.264 / 1080i-LQ]

        (скачиваний: 6)
        Журнал | Всему свету по совету №1 (228) (январь 2017) [PDF]

        (скачиваний: 6)
        Святитель Феофан Затворник | Собрание сочинений [69 Томов] (2008) [FB2]

        (скачиваний: 5)
        Трэвис Хэйли. Адаптивный автомат Калашникова / Travis Haley: Adaptive Kalash (2011) WEBRip [720p-LQ] скачать через торрент бесплатно

        (скачиваний: 5)
        Николай Ягодкин | Технология постановки навыков (2013) PCRec [H.264]

        (скачиваний: 4)
        Горная бригада (2014) HDTVRip [720p-LQ] [Серии: 1-12 из 12] скачать через торрент бесплатно

        (скачиваний: 4)
        Орел и решка. Перезагрузка (2017.10.30) WEB-DL [H.264 / 720p-LQ] (сезон 14: Барселона. Испания)

        (скачиваний: 4)