.
Авторизация | Регистрация
Хочешь лучшие торренты? Добавь свой email!
Добавить

Торрент скачать бесплатно

» » Студия Союз (2017.09.07) WEB-DLRip (выпуск 5) торрент скачать бесплатно




    Студия Союз (2017.09.07) WEB-DLRip (выпуск 5) торрент скачать бесплатно

    Опубликовал: Админ | Дата: 11-09-2017, 05:00 | Просмотров: 0

    Телекомпания: ТНТ
    Жанр: ТВ-шоу, юмор, импровизация
    Ведущие: Кирилл Коковкин, Айдар Гараев, Виктор Щетков, Александр Алымов, Артем Муратов, Елена Гущина
    Участники: Гарик Харламов, Тимур Батрутдинов, Ксения Бородина, Анна Хилькевич, Екатерина Варнава, Руслан Белый, Юлия Ахмедова, Мигель, Антон Шастун, Екатерина Решетникова, Станислав Ярушин, Александр Гудков, Сергей Матвиенко, Ольга Бузова

    Описание

    Участники шоу Студия СОЮЗ будут меряться музыкальностью, чтобы сделать зрителю очень смешно. По задумке сценаристов, на шоу работают постоянные ведущие, а также регулярно приглашаются другие звезды ТНТ. Их задача: обсудить и максимально удачно высмеять популярную в данный момент песню. На обсуждение выносится все до мелочей: текст, музыка, манера исполнения и другие аспекты музыкального выступления.
    Релиз от: svlesin
    Продолжительность: ~ 00: 45: 15
    Качество видео: WEB-DLRip
    Субтитры: Отсутствуют
    Видео: MPEG4, XviD, 720x400 (16: 9), 25.000 fps, 1 800 Kbps (0.250 bit/pixel)
    Аудио: AC-3, 44.1 KHz, 2 ch, 192 Kbps, CBR
    Код: выделить все
    Общее
    Полное имя : D:[1]Студия СоюзСтудия Союз. Выпуск 05 (2017.09.07)_WEB-DLRip.avi
    Формат : AVI
    Формат/Информация : Audio Video Interleave
    Размер файла : 647 Мбайт
    Продолжительность : 45 м.
    Общий поток : 1998 Кбит/сек
    Название фильма : Studio Souz.05(2017.09.07)_nnm-club.name
    Программа кодирования : VirtualDubModRus 1.5.10.2 (build 2542/release)
    Библиотека кодирования : VirtualDubMod build 2542/release
    Видео
    Идентификатор : 0
    Формат : MPEG-4 Visual
    Профиль формата : Advanced Simple@L5
    Параметр BVOP формата : 1
    Параметр QPel формата : Нет
    Параметр GMC формата : Без точки перехода
    Параметр матрицы формата : Default (H.263)
    Идентификатор кодека : XVID
    Идентификатор кодека/Подсказка : XviD
    Продолжительность : 45 м.
    Битрейт : 1800 Кбит/сек
    Ширина : 720 пикселей
    Высота : 400 пикселей
    Соотношение сторон : 16:9
    Частота кадров : 25, 000 кадров/сек
    Цветовое пространство : YUV
    Субдискретизация насыщенности : 4:2:0
    Битовая глубина : 8 бит
    Тип развёртки : Прогрессивная
    Метод сжатия : С потерями
    Бит/(Пиксели*Кадры) : 0.250
    Размер потока : 582 Мбайт (90%)
    Библиотека кодирования : XviD 67
    Аудио
    Идентификатор : 1
    Формат : AC-3
    Формат/Информация : Audio Coding 3
    Расширение режима : CM (complete main)
    Параметр Endianness формата : Big
    Идентификатор кодека : 2000
    Продолжительность : 45 м.
    Продолжительность оригинала : 45 м.
    Вид битрейта : Постоянный
    Битрейт : 192 Кбит/сек
    Каналы : 2 канала
    Расположение каналов : Front: L R
    Частота : 44, 1 КГц
    Битовая глубина : 16 бит
    Метод сжатия : С потерями
    Размер потока : 62, 1 Мбайт (10%)
    Выравнивание : Разделение по промежуткам
    Продолжительность промежутка : 160 мс. (4, 00 видеокадра)
    Время предзагрузки промежутка : 640 мс.

    Скриншоты для ознакомления



    Все одноименные релизы в Клубе
    Время раздачи: 24/7. Прикольно все это наверно придумал Кравчук потратив достаточно времени. До первых 5 скачавших.

    Студия Союз (2017.09.07) WEB-DLRip (выпуск 5)
    загрузка...
    Рейтинг →
     (голосов: 1, оценка 3/5, голосовать можно 1 раз )

    Другие торренты по теме:

  • Студия Союз (2017.08.10) HDTV [H.264 / 1080p-LQ] (выпуск 1)
  • Студия Союз (2017.08.10) WEB-DL [H.264 / 720p-LQ] (выпуск 1)
  • Студия Союз (2017.08.10) SATRip (выпуск 1)
  • Студия Союз (2017.08.17) SATRip (выпуск 2)
  • Студия Союз (2017.08.17) HDTV [H.264 / 1080p-LQ] (выпуск 2)
  • Студия Союз (2017.08.17) WEB-DL [H.264 / 720p-LQ] (выпуск 2)
  • Студия Союз (2017.08.24) SATRip (выпуск 3)
  • Студия Союз (2017.08.24) HDTV [H.264 / 1080p-LQ] (выпуск 3)


    • Комментарии (0):

      Информация

      Информация

        Посетители, находящиеся в группе Гости, не могут оставлять комментарии в данной новости.

        ↓ Меню




        ↓ Опрос

        Вы добавили сайт в закладки?
        Да
        Нет


        Top 10 за месяц (Передачи)

        Алексей Широков, Александр Шапочкин | Попаданец 2.0 (2017) [FB2]

        (скачиваний: 10)
        Фигурное катание. Гран-при 2017-2018. 3-й Этап. Кубок Китая 2017. Пекин (Китай). 2 День (04.11.2017) HDTV [H.264 / 1080i-LQ]

        (скачиваний: 8)
        Михаил Задорнов. Лучшее - сборник лучших эстрадных номеров Михаила Задорнова за 30 лет (1984-2014) WEBRip скачать через торрент бесплатно

        (скачиваний: 8)
        Орел и решка. Перезагрузка (2017.11.07) WEB-DL [H.264 / 720p-LQ] (сезон 14: Ибица. Испания)

        (скачиваний: 6)
        Журнал | Всему свету по совету №1 (228) (январь 2017) [PDF]

        (скачиваний: 6)
        Святитель Феофан Затворник | Собрание сочинений [69 Томов] (2008) [FB2]

        (скачиваний: 5)
        Трэвис Хэйли. Адаптивный автомат Калашникова / Travis Haley: Adaptive Kalash (2011) WEBRip [720p-LQ] скачать через торрент бесплатно

        (скачиваний: 5)
        Орел и решка. Перезагрузка (2017.10.30) WEB-DL [H.264 / 720p-LQ] (сезон 14: Барселона. Испания)

        (скачиваний: 5)
        Николай Ягодкин | Технология постановки навыков (2013) PCRec [H.264]

        (скачиваний: 4)
        Истории о современном искусстве (Неистовые модернисты) / Les aventuriers de lart moderne (2015) HDTVRip [H.264 / 720p-LQ] (сезон 1, серии 1-2 из 6) [обновляемая]

        (скачиваний: 4)