.
Авторизация | Регистрация
Хочешь лучшие торренты? Добавь свой email!
Добавить

Торрент скачать бесплатно

» » Love Is / Comedy Club / Comedy Woman (2017.09.08) WEB-DL [H.264 / 720p-LQ] (выпуск 4) торрент скачать бесплатно




    Love Is / Comedy Club / Comedy Woman (2017.09.08) WEB-DL [H.264 / 720p-LQ] (выпуск 4) торрент скачать бесплатно

    Опубликовал: Админ | Дата: 11-09-2017, 05:00 | Просмотров: 0

    Телекомпания: ТНТ
    Жанр: Юмор, ТВ-Шоу
    Режиссер: Рустам Ильясов
    Ведущие: Наталья Еприкян
    Участники: Екатерина Варнава, Марина Федункив, Наталья Еприкян, Мария Кравченко, Екатерина Скулкина, Надежда Сысоева, Наталия Медведева, Татьяна Морозова, Сергей Лазарев

    Описание

    Love is — это экшен, мелодрама, триллер, но прежде всего комедия, снятая по стандартам Голливуда и Болливуда. Сочная качественная картинка, киношные спецэффекты и реалистичные декорации ставят проект ТНТ особняком, позволяя говорить о рождении нового жанра — кино-скетчком. Love is — это пять разных историй о пяти совершенно непохожих друг на друга женщинах. Единственное, что их объединяет, — искреннее желание обрести счастье, любовь и мать ее — нежность.
    Релиз от: svlesin
    Продолжительность: ~ 00: 24: 15
    Качество видео: WEB-DL
    Субтитры: Отсутствуют
    Видео: AVC, 1280x720 (16: 9), 25.000 fps, 3 501 Kbps (0.152 bit/pixel)
    Аудио: AC-3, 44.1 KHz, 2 ch, 192 Kbps, CBR
    Код: выделить все
    Общее
    Уникальный идентификатор : 240265891493163040069580436709619593628 (0xB4C1870A8331E276B65A60B2A56CF19C)
    Полное имя : D:[1]Love IsLove Is. Выпуск 04 (2017.09.08)_720.mkv
    Формат : Matroska
    Версия формата : Version 4/Version 2
    Размер файла : 653 Мбайт
    Продолжительность : 24 м.
    Общий поток : 3768 Кбит/сек
    Название фильма : Love Is. Выпуск 04 (2017.09.08)_nnm-club.name
    Дата кодирования : UTC 2017-09-08 18:41:56
    Программа кодирования : mkvmerge v15.0.0 (\'Duel with the Devil\') 64-bit
    Библиотека кодирования : libebml v1.3.5 + libmatroska v1.4.5
    DURATION : 00:24:14.986000000
    NUMBER_OF_FRAMES : 41774
    NUMBER_OF_BYTES : 34919652
    _STATISTICS_WRITING_APP : mkvmerge v15.0.0 (\'Duel with the Devil\') 64-bit
    _STATISTICS_WRITING_DATE_UTC : 2017-09-08 18:41:56
    _STATISTICS_TAGS : BPS DURATION NUMBER_OF_FRAMES NUMBER_OF_BYTES
    Видео
    Идентификатор : 1
    Формат : AVC
    Формат/Информация : Advanced Video Codec
    Профиль формата :High@L3.1
    Параметр CABAC формата : Да
    Параметр ReFrames формата : 1 кадр
    Параметр GOP формата : M=1, N=12
    Идентификатор кодека : V_MPEG4/ISO/AVC
    Продолжительность : 24 м.
    Битрейт : 3501 Кбит/сек
    Ширина : 1280 пикселей
    Высота : 720 пикселей
    Соотношение сторон : 16:9
    Режим частоты кадров : Постоянный
    Частота кадров : 25, 000 кадров/сек
    Стандарт вещания : Component
    Цветовое пространство : YUV
    Субдискретизация насыщенности : 4:2:0
    Битовая глубина : 8 бит
    Тип развёртки : Прогрессивная
    Бит/(Пиксели*Кадры) : 0.152
    Размер потока : 607 Мбайт (93%)
    Язык : English
    Default : Да
    Forced : Нет
    Цветовой диапазон : Limited
    Аудио
    Идентификатор : 2
    Формат : AC-3
    Формат/Информация : Audio Coding 3
    Расширение режима : CM (complete main)
    Параметр Endianness формата : Big
    Идентификатор кодека : A_AC3
    Продолжительность : 24 м.
    Вид битрейта : Постоянный
    Битрейт : 192 Кбит/сек
    Каналы : 2 канала
    Расположение каналов : Front: L R
    Частота : 44, 1 КГц
    Битовая глубина : 16 бит
    Метод сжатия : С потерями
    Размер потока : 33, 3 Мбайт (5%)
    Default : Да
    Forced : Нет

    Скриншоты для ознакомления



    Все одноименные релизы в Клубе
    Время раздачи: 24/7. До первых 5 скачавших.

    Love Is/Comedy Club/Comedy Woman (2017.09.08) WEB-DL [H.264/720p-LQ] (выпуск 4)
    загрузка...
    Рейтинг →
     (голосов: 1, оценка 5/5, голосовать можно 1 раз )

    Другие торренты по теме:

  • Love Is / Comedy Club / Comedy Woman (2017.08.25) WEB-DL [H.264 / 720p-LQ] (выпуск 2)
  • Love Is / Comedy Club / Comedy Woman (2017.08.25) WEB-DLRip (выпуск 2)
  • Love Is / Comedy Club / Comedy Woman (2017.08.25) WEB-DL [H.264 / 720p-LQ] (выпуск 1)
  • Love Is / Comedy Club / Comedy Woman (2017.08.25) WEB-DLRip (выпуск 1)
  • Love Is / Comedy Club / Comedy Woman (2017.08.25) SATRip (выпуск 2)
  • Love Is / Comedy Club / Comedy Woman (2017.08.25) SATRip (выпуск 1)
  • Love Is / Comedy Club / Comedy Woman (2017.08.25) HDTV [H.264 / 1080i-LQ] (выпуск 2)
  • Love Is / Comedy Club / Comedy Woman (2017.08.25) HDTV [H.264 / 1080i-LQ] (выпуск 1)


    • Комментарии (0):

      Информация

      Информация

        Посетители, находящиеся в группе Гости, не могут оставлять комментарии в данной новости.

        ↓ Меню




        ↓ Опрос

        Вы добавили сайт в закладки?
        Да
        Нет


        Top 10 за месяц (Передачи)

        Алексей Широков, Александр Шапочкин | Попаданец 2.0 (2017) [FB2]

        (скачиваний: 10)
        Фигурное катание. Гран-при 2017-2018. 3-й Этап. Кубок Китая 2017. Пекин (Китай). 2 День (04.11.2017) HDTV [H.264 / 1080i-LQ]

        (скачиваний: 8)
        Михаил Задорнов. Лучшее - сборник лучших эстрадных номеров Михаила Задорнова за 30 лет (1984-2014) WEBRip скачать через торрент бесплатно

        (скачиваний: 8)
        Орел и решка. Перезагрузка (2017.11.07) WEB-DL [H.264 / 720p-LQ] (сезон 14: Ибица. Испания)

        (скачиваний: 6)
        Журнал | Всему свету по совету №1 (228) (январь 2017) [PDF]

        (скачиваний: 6)
        Святитель Феофан Затворник | Собрание сочинений [69 Томов] (2008) [FB2]

        (скачиваний: 5)
        Трэвис Хэйли. Адаптивный автомат Калашникова / Travis Haley: Adaptive Kalash (2011) WEBRip [720p-LQ] скачать через торрент бесплатно

        (скачиваний: 5)
        Орел и решка. Перезагрузка (2017.10.30) WEB-DL [H.264 / 720p-LQ] (сезон 14: Барселона. Испания)

        (скачиваний: 5)
        Николай Ягодкин | Технология постановки навыков (2013) PCRec [H.264]

        (скачиваний: 4)
        Истории о современном искусстве (Неистовые модернисты) / Les aventuriers de lart moderne (2015) HDTVRip [H.264 / 720p-LQ] (сезон 1, серии 1-2 из 6) [обновляемая]

        (скачиваний: 4)