.
Авторизация | Регистрация
Хочешь лучшие торренты? Добавь свой email!
Добавить

Торрент скачать бесплатно

» » Футбол. Чемпионат Мира 2018. Отборочный турнир. Южная Америка. 15-й тур. Бразилия – Эквадор (31.08.2017) HDTVRip [H.264 / 720p-LQ] [hand made 50fps] торрент скачать бесплатно




    Футбол. Чемпионат Мира 2018. Отборочный турнир. Южная Америка. 15-й тур. Бразилия – Эквадор (31.08.2017) HDTVRip [H.264 / 720p-LQ] [hand made 50fps] торрент скачать бесплатно

    Опубликовал: Админ | Дата: 11-09-2017, 05:00 | Просмотров: 0

    Телекомпания: Матч! Футбол 3 HD + Матч ТВ HD
    Жанр: Спорт
    Комментатор: Михаил Мельников

    Описание
    01 сентября 2017 года, пятница. 03: 45 МСК
    Чемпионат Мира 2018. Отборочный турнир. Божий одуванчик, сказал кто то из толпы, к чему не понятно. Южная Америка. 15-й тур
    Бразилия – Эквадор
    Стадион: Арена ду Гремио (Порту-Алегри, Бразилия), вместимость: 60540
    Главный судья: Марио Альберто Диас де Вивар (Парагвай)
    Ассистент: Мильсьядес Сальдивар Франко (Парагвай)
    Ассистент: Родни Акино Мальдонадо (Парагвай)
    Резервный: Хулио Сезар Кинтана (Парагвай)
    Релиз от: CSKAfan
    Продолжительность: 01: 46: 14
    Качество видео: HDTVRip
    Язык озвучки: Русский
    Субтитры: отсутствуют
    Видео: AVC/H.264, 1280x720 (16: 9), ~4134 Kbps, 50 fps
    Аудио: AC3, 2 ch, 48 kHz, 128 Kbps

    Общее
    Уникальный идентификатор : 191276977431511051726148468149394923736 (0x8FE69B190870F6418077FA7C0F9CE0D8)
    Полное имя : F: SPORTФутболЧМ-2018(31.08.2017)_Football.FIFA World Cup 2018.Qualifiers.S.America.15t. Brazil – Ecuador.mkv
    Формат : Matroska
    Версия формата : Version 4/Version 2
    Размер файла : 3, 16 Гбайт
    Продолжительность : 1 ч. Самое интересное в это истории, что об этом Кравчук ничего не знал. 46 м.
    Общий поток : 4265 Кбит/сек
    Дата кодирования : UTC 2017-09-09 00: 51: 57
    Программа кодирования : mkvmerge v15.0.0 (\'Duel with the Devil\') 32-bit
    Библиотека кодирования : libebml v1.3.5 + libmatroska v1.4.5
    Видео
    Идентификатор : 1
    Формат : AVC
    Формат/Информация : Advanced Video Codec
    Профиль формата : High@L4.1
    Параметр CABAC формата : Да
    Параметр RefFrames формата : 4 кадра
    Идентификатор кодека : V_MPEG4/ISO/AVC
    Продолжительность : 1 ч. 46 м.
    Битрейт : 4134 Кбит/сек
    Ширина : 1280 пикселей
    Высота : 720 пикселей
    Соотношение сторон : 16: 9
    Режим частоты кадров : Постоянный
    Частота кадров : 50, 000 кадров/сек
    Цветовое пространство : YUV
    Субдискретизация насыщенности : 4: 2: 0
    Битовая глубина : 8 бит
    Тип развёртки : Прогрессивная
    Бит/(Пиксели*Кадры) : 0.090
    Размер потока : 3, 07 Гбайт (97%)
    Default : Да
    Forced : Нет
    Аудио
    Идентификатор : 2
    Формат : AC-3
    Формат/Информация : Audio Coding 3
    Параметр Endianness формата : Big
    Идентификатор кодека : A_AC3
    Продолжительность : 1 ч. 46 м.
    Вид битрейта : Постоянный
    Битрейт : 128 Кбит/сек
    Каналы : 2 канала
    Расположение каналов : Front: L R
    Частота : 48, 0 КГц
    Частота кадров : 31, 250 кадров/сек (1536 SPF)
    Битовая глубина : 16 бит
    Метод сжатия : С потерями
    Размер потока : 97, 3 Мбайт (3%)
    Язык : Russian
    ServiceKind/String : Complete Main
    Default : Да
    Forced : Нет

    Скриншоты для ознакомления



    Футбол. Чемпионат Мира 2018 в Клубе
    Время раздачи: 24/7 (до 1 месяца)

    Футбол. Чемпионат Мира 2018. Отборочный турнир. Южная Америка. 15-й тур. Бразилия – Эквадор (31.08.2017) HDTVRip [H.264/720p-LQ] [hand made 50fps]
    загрузка...
    Рейтинг →
     (голосов: 1, оценка 5/5, голосовать можно 1 раз )

    Другие торренты по теме:

  • Футбол. Чемпионат Мира 2018. Отборочный турнир. Европа. Плей-офф. 2-й матч. Швейцария – Северная Ирландия (12.11.2017) HDTVRip [H.264 / 720p-LQ] [hand made 50fps]
  • Футбол. Чемпионат Мира 2018. Отборочный турнир. Европа. Плей-офф. 2-й матч. Греция – Хорватия (12.11.2017) HDTVRip [H.264 / 720p-LQ] [hand made 50fps]
  • Футбол. Чемпионат Мира 2018. Отборочный турнир. Европа. Плей-офф. Обзор Первыx матчей (11.11.2017) HDTVRip [H.264 / 720p-LQ] [hand made 50fps]
  • Футбол. Чемпионат Мира 2018. Отборочный турнир. Европа. Плей-офф. 1-й матч. Дания – Ирландия (11.11.2017) HDTVRip [H.264 / 720p-LQ] [hand made 50fps]
  • Футбол. Чемпионат Мира 2018. Отборочный турнир. Европа. Плей-офф. 1-й матч. Швеция – Италия (10.11.2017) HDTVRip [H.264 / 720p-LQ] [hand made 50fps]
  • Футбол. Чемпионат Мира 2018. Отборочный турнир. Европа. Плей-офф. 2-й матч. Италия – Швеция (13.11.2017) HDTVRip [H.264 / 720p-LQ] [hand made 50fps]
  • Футбол. Чемпионат Европы 2016. Группа D. 1-й тур. Испания - Чехия (13.06.2016) HDTVRip [H.264 / 1080p-LQ] (Матч Футбол 1 HD)
  • Футбол. Чемпионат Европы 2016. Группа E. 1-й тур. Ирландия - Швеция (13.06.2016) HDTVRip [H.264 / 1080p-LQ] (Матч Футбол 1 HD)


    • Комментарии (0):

      Информация

      Информация

        Посетители, находящиеся в группе Гости, не могут оставлять комментарии в данной новости.

        ↓ Меню




        ↓ Опрос

        Вы добавили сайт в закладки?
        Да
        Нет


        Top 10 за месяц (Передачи)

        Михаил Задорнов. Лучшее - сборник лучших эстрадных номеров Михаила Задорнова за 30 лет (1984-2014) WEBRip скачать через торрент бесплатно

        (скачиваний: 7)
        Журнал | Всему свету по совету №1 (228) (январь 2017) [PDF]

        (скачиваний: 6)
        Фигурное катание. Гран-при 2017-2018. 3-й Этап. Кубок Китая 2017. Пекин (Китай). 2 День (04.11.2017) HDTV [H.264 / 1080i-LQ]

        (скачиваний: 6)
        Трэвис Хэйли. Адаптивный автомат Калашникова / Travis Haley: Adaptive Kalash (2011) WEBRip [720p-LQ] скачать через торрент бесплатно

        (скачиваний: 5)
        Святитель Феофан Затворник | Собрание сочинений [69 Томов] (2008) [FB2]

        (скачиваний: 5)
        Орел и решка. Перезагрузка (2017.11.07) WEB-DL [H.264 / 720p-LQ] (сезон 14: Ибица. Испания)

        (скачиваний: 4)
        Николай Ягодкин | Технология постановки навыков (2013) PCRec [H.264]

        (скачиваний: 4)
        Журнал | Рецепты на бис. Спецвыпуск №1 (19) (2017) [PDF]

        (скачиваний: 4)
        Айрэн По, Джули По | Нумерология, как профессия. Мы из матрицы. Книга 1 (2016) [DJVU]

        (скачиваний: 4)
        Comedy Club (2010-2014) SATRip / WEB-DLRip [Выпуск: 201-363] скачать через торрент бесплатно

        (скачиваний: 4)