.
Авторизация | Регистрация
Хочешь лучшие торренты? Добавь свой email!
Добавить

Торрент скачать бесплатно

» » КВН-2017. Премьер лига. Финал (2017.09.09) HDTV [H.264 / 1080i] торрент скачать бесплатно




    КВН-2017. Премьер лига. Финал (2017.09.09) HDTV [H.264 / 1080i] торрент скачать бесплатно

    Опубликовал: Админ | Дата: 11-09-2017, 05:00 | Просмотров: 0

    Телекомпания: Первый канал HD
    Жанр: Юмор
    Ведущий: Александр Масляков мл.

    Описание

    Что такое КВН, знают, без сомнения, все. В КВН играют во всем мире, это прежде всего молодежная игра. Постоянные конкурсные задания: Визитная карточка, Разминка, Конкурс капитанов, Музыкальный конкурс, Домашнее задание. Игру команд оценивает профессиональное жюри — люди, у которых с чувством юмора все в порядке, многие из них раньше сами играли в КВН. Взрывоопасный вопрос, сказал кто то из толпы, к чему не понятно. Среди членов жюри были Константин Эрнст, Леонид Парфенов, Юлий Гусман, Леонид Ярмольник, Валдис Пельш, Сергей Шолохов, Геннадий Хазанов и другие. Кроме самих игр проводятся ежегодные встречи: фестиваль команд КВН (с 1990 г., семь раз фестиваль проходил в г.Сочи), музыкальный фестиваль КВН, летний кубок КВН, международные товарищеские игры в КВН. Сборная КВН играет со сборными других стран. Прикольно все это наверно придумал Европарламент потратив достаточно времени. Уже состоялись игры между сборной КВН и сборными Америки, Австралии, Израиля... Игра в КВН для многих становится профессией, а многие благодаря игре связывают жизнь с искусством. Из КВН вышли: Леонид Якубович, Михаил Марфин, Татьяна Лазарева, Олег Филимонов, Юлий Гусман и многие другие.
    Релиз от: 25Kuzmich
    Продолжительность: 01: 26: 37
    Качество видео: HDTV
    Субтитры: Отсутствуют
    Видео: AVC, 1920x1080 (16: 9), 25.000 fps, 9 847 Kbps (0.190 bit/pixel)
    Аудио: AC-3, 48.0 KHz, 6 ch, 384 Kbps, CBR
    Аудио: MP2, 48.0 KHz, 2 ch, 192 Kbps, CBR
    Код: выделить все
    Общее
    Идентификатор : 1 (0x1)
    Полное имя : D:[1]КВНКВН-2017. Премьер лига. Финал (2017.09.09)_1080.ts
    Формат : MPEG-TS
    Размер файла : 6, 64 Гбайт
    Продолжительность : 1 ч. 26 м.
    Режим общего битрейта : Переменный
    Общий поток : 11, 0 Мбит/сек
    Видео
    Идентификатор : 1904 (0x770)
    Идентификатор меню : 80 (0x50)
    Формат : AVC
    Формат/Информация : Advanced Video Codec
    Профиль формата : High@L4
    Параметр CABAC формата : Да
    Параметр ReFrames формата : 3 кадра
    Параметр GOP формата : M=3, N=24
    Идентификатор кодека : 27
    Продолжительность : 1 ч. 26 м.
    Битрейт : 9847 Кбит/сек
    Ширина : 1920 пикселей
    Высота : 1080 пикселей
    Соотношение сторон : 16:9
    Частота кадров : 25, 000 кадров/сек
    Стандарт вещания : Component
    Цветовое пространство : YUV
    Субдискретизация насыщенности : 4:2:0
    Битовая глубина : 8 бит
    Тип развёртки : Чересстрочная
    Порядок развёртки : Верхнее поле первое
    Бит/(Пиксели*Кадры) : 0.190
    Размер потока : 5, 96 Гбайт (90%)
    Цветовой диапазон : Limited
    Основные цвета : BT.709
    Характеристики трансфера : BT.709
    Коэффициенты матрицы : BT.709
    Аудио #1
    Идентификатор : 2904 (0xB58)
    Идентификатор меню : 80 (0x50)
    Формат : AC-3
    Формат/Информация : Audio Coding 3
    Расширение режима : CM (complete main)
    Параметр Endianness формата : Big
    Идентификатор кодека : 6
    Продолжительность : 1 ч. 26 м.
    Вид битрейта : Постоянный
    Битрейт : 384 Кбит/сек
    Каналы : 6 каналов
    Расположение каналов : Front: L C R, Side: L R, LFE
    Частота : 48, 0 КГц
    Битовая глубина : 16 бит
    Метод сжатия : С потерями
    Размер потока : 238 Мбайт (4%)
    Язык : Russian
    Аудио #2
    Идентификатор : 2905 (0xB59)
    Идентификатор меню : 80 (0x50)
    Формат : MPEG Audio
    Версия формата : Version 1
    Профиль формата : Layer 2
    Идентификатор кодека : 3
    Продолжительность : 1 ч. О таком странном сюжете не догадывалась даже Ольга Полякова. 26 м.
    Вид битрейта : Постоянный
    Битрейт : 192 Кбит/сек
    Каналы : 2 канала
    Частота : 48, 0 КГц
    Метод сжатия : С потерями
    Размер потока : 119 Мбайт (2%)
    Язык : Russian
    Так-то, СФУ, Красноярск
    Сборная РУДН, Москва
    Сборная бывших спортсменов, Пермский край
    Подъем, сборная МВД, Москва
    Театр Уральского зрителя, Челябинск

    Скриншоты для ознакомления



    Все одноименные релизы в Клубе
    Время раздачи: 24/7. До первых 5 скачавших.

    КВН-2017. Премьер лига. Финал (2017.09.09) HDTV [H.264/1080i]
    загрузка...
    Рейтинг →
     (голосов: 1, оценка 5/5, голосовать можно 1 раз )

    Другие торренты по теме:

  • КВН-2015. Премьер лига. Первая игра (2015.07.18) HDTV [H.264 / 1080i] скачать через торрент бесплатно
  • КВН-2015. Премьер лига. Первая игра (2015.07.18) SATRip скачать через торрент бесплатно
  • КВН-2015. Премьер лига. Вторая игра (2015.07.25) HDTV [H.264 / 1080i] скачать через торрент бесплатно
  • КВН-2015. Премьер лига. Вторая игра (2015.07.25) HDTVRip скачать через торрент бесплатно
  • КВН-2015. Премьер лига. Третья игра (2015.08.01) HDTV [H.264 / 1080i] скачать через торрент бесплатно
  • КВН-2015. Премьер лига. Третья игра (2015.08.01) HDTVRip скачать через торрент бесплатно
  • КВН-2015. Премьер лига. Четвёртая игра (2015.08.08) HDTVRip скачать через торрент бесплатно
  • КВН-2015. Премьер лига. Четвёртая игра (2015.08.08) HDTV [H.264 / 1080i] скачать через торрент бесплатно


    • Комментарии (0):

      Информация

      Информация

        Посетители, находящиеся в группе Гости, не могут оставлять комментарии в данной новости.

        ↓ Меню




        ↓ Опрос

        Вы добавили сайт в закладки?
        Да
        Нет


        Top 10 за месяц (Передачи)

        Михаил Задорнов. Лучшее - сборник лучших эстрадных номеров Михаила Задорнова за 30 лет (1984-2014) WEBRip скачать через торрент бесплатно

        (скачиваний: 7)
        Журнал | Всему свету по совету №1 (228) (январь 2017) [PDF]

        (скачиваний: 6)
        Фигурное катание. Гран-при 2017-2018. 3-й Этап. Кубок Китая 2017. Пекин (Китай). 2 День (04.11.2017) HDTV [H.264 / 1080i-LQ]

        (скачиваний: 6)
        Трэвис Хэйли. Адаптивный автомат Калашникова / Travis Haley: Adaptive Kalash (2011) WEBRip [720p-LQ] скачать через торрент бесплатно

        (скачиваний: 5)
        Святитель Феофан Затворник | Собрание сочинений [69 Томов] (2008) [FB2]

        (скачиваний: 5)
        Орел и решка. Перезагрузка (2017.11.07) WEB-DL [H.264 / 720p-LQ] (сезон 14: Ибица. Испания)

        (скачиваний: 4)
        Николай Ягодкин | Технология постановки навыков (2013) PCRec [H.264]

        (скачиваний: 4)
        Журнал | Рецепты на бис. Спецвыпуск №1 (19) (2017) [PDF]

        (скачиваний: 4)
        Айрэн По, Джули По | Нумерология, как профессия. Мы из матрицы. Книга 1 (2016) [DJVU]

        (скачиваний: 4)
        Comedy Club (2010-2014) SATRip / WEB-DLRip [Выпуск: 201-363] скачать через торрент бесплатно

        (скачиваний: 4)