.
Авторизация | Регистрация
Хочешь лучшие торренты? Добавь свой email!
Добавить

Торрент скачать бесплатно

» » Футбол. Чемпионат Мира 2018. Отборочный турнир. Европа. Группа F. 7-й тур. Словакия – Словения (01.09.2017) HDTVRip [H.264 / 720p-LQ] [hand made 50fps] торрент скачать бесплатно




    Футбол. Чемпионат Мира 2018. Отборочный турнир. Европа. Группа F. 7-й тур. Словакия – Словения (01.09.2017) HDTVRip [H.264 / 720p-LQ] [hand made 50fps] торрент скачать бесплатно

    Опубликовал: Админ | Дата: 11-09-2017, 05:00 | Просмотров: 0

    Телекомпания: Матч! Футбол 3 HD
    Жанр: Спорт
    Комментатор: Михаил Моссаковский

    Описание
    01 сентября 2017 года, пятница. 21: 45 МСК
    Чемпионат Мира 2018. Отборочный турнир. Европа. Группа F. 7-й тур
    Словакия – Словения
    Стадион: Антон Малатински (Трнава, Словакия), вместимость: 18448
    Главный судья: Матеу Лаос (Испания)
    Ассистент: Пау Себрьян Девис (Испания)
    Ассистент: Роберто Диас Перес Дель Паломар (Испания)
    Резервный: Алехандро Хосе Эрнандес Эрнандес (Испания)
    Релиз от: toshap
    Продолжительность: 01: 47: 17
    Качество видео: HDTVRip
    Язык озвучки: Русский
    Субтитры: отсутствуют
    Видео: AVC/H.264, 1280x720 (16: 9), ~3485 Kbps, 50 fps
    Аудио: AC3, 2 ch, 48 kHz, 128 Kbps

    Общее
    Уникальный идентификатор : 244688054432559611380886898128824546476 (0xB8153481DCED3CE5B7042E488FDBB4AC)
    Полное имя : F: SPORTФутболЧМ-2018Чемпионат Мира 2018.ОT. Европа. 7-й тур(01.09.2017)_FIFA QWCh 2018.UEFA.Gr F.7t. Slovakia – Slovenia.mkv
    Формат : Matroska
    Версия формата : Version 4/Version 2
    Размер файла : 2, 71 Гбайт
    Продолжительность : 1 ч. 47 м.
    Общий поток : 3616 Кбит/сек
    Название фильма : All Sport on RGFOOTBALL.NET
    Дата кодирования : UTC 2017-09-08 16: 35: 46
    Программа кодирования : mkvmerge v15.0.0 (\'Duel with the Devil\') 32-bit
    Библиотека кодирования : libebml v1.3.5 + libmatroska v1.4.5
    Видео
    Идентификатор : 1
    Формат : AVC
    Формат/Информация : Advanced Video Codec
    Профиль формата : High@L3.2
    Параметр CABAC формата : Да
    Параметр RefFrames формата : 4 кадра
    Идентификатор кодека : V_MPEG4/ISO/AVC
    Продолжительность : 1 ч. 47 м.
    Битрейт : 3485 Кбит/сек
    Ширина : 1280 пикселей
    Высота : 720 пикселей
    Соотношение сторон : 16: 9
    Режим частоты кадров : Постоянный
    Частота кадров : 50, 000 кадров/сек
    Цветовое пространство : YUV
    Субдискретизация насыщенности : 4: 2: 0
    Битовая глубина : 8 бит
    Тип развёртки : Прогрессивная
    Бит/(Пиксели*Кадры) : 0.076
    Размер потока : 2, 61 Гбайт (96%)
    Default : Да
    Forced : Нет
    Аудио
    Идентификатор : 2
    Формат : AC-3
    Формат/Информация : Audio Coding 3
    Параметр Endianness формата : Big
    Идентификатор кодека : A_AC3
    Продолжительность : 1 ч. 47 м.
    Вид битрейта : Постоянный
    Битрейт : 128 Кбит/сек
    Каналы : 2 канала
    Расположение каналов : Front: L R
    Частота : 48, 0 КГц
    Частота кадров : 31, 250 кадров/сек (1536 SPF)
    Битовая глубина : 16 бит
    Метод сжатия : С потерями
    Размер потока : 98, 2 Мбайт (4%)
    Язык : Russian
    ServiceKind/String : Complete Main
    Default : Да
    Forced : Нет

    Скриншоты для ознакомления



    Футбол. Чемпионат Мира 2018 в Клубе
    Время раздачи: 24/7 (до 1 месяца)

    Футбол. Чемпионат Мира 2018. Отборочный турнир. Европа. Группа F. 7-й тур. Словакия – Словения (01.09.2017) HDTVRip [H.264/720p-LQ] [hand made 50fps]
    загрузка...
    Рейтинг →
     (голосов: 1, оценка 4/5, голосовать можно 1 раз )

    Другие торренты по теме:

  • Футбол. Чемпионат Европы 2016. Группа D. 1-й тур. Испания - Чехия (13.06.2016) HDTVRip [H.264 / 1080p-LQ] (Матч Футбол 1 HD)
  • Футбол. Чемпионат Европы 2016. Группа E. 1-й тур. Ирландия - Швеция (13.06.2016) HDTVRip [H.264 / 1080p-LQ] (Матч Футбол 1 HD)
  • Футбол. Чемпионат Европы 2016. Группа E. 1-й тур. Бельгия - Италия (13.06.2016) HDTVRip [H.264 / 1080p-LQ] (Матч Футбол 1 HD)
  • Футбол. Чемпионат Европы 2016. Группа E. 1-й тур. Бельгия - Италия (13.06.2016) HDTV [H.264 / 1080i](Футбол 1 HD)
  • Футбол. Чемпионат Мира 2014. Финал. Германия - Аргентина (2014.07.13) HDTVRip [H.264 / 720p] [hand made 50fps]
  • Футбол. Чемпионат Мира 2014. Все голы (2014) HDTVRip [H.264 / 720p] [hand made 50fps]
  • Футбол. Чемпионат Мира 2014. Матч за 1-2 место. Финал. Германия – Аргентина + Награждение (2014.07.13) HDTV [H.264 / 1080i]
  • Футбол. Чемпионат Мира 2014. Матч за 1-2 место. Финал. Германия - Аргентина (2014.07.13) WEB-DL [H.264 / 720p-LQ]


    • Комментарии (0):

      Информация

      Информация

        Посетители, находящиеся в группе Гости, не могут оставлять комментарии в данной новости.

        ↓ Меню




        ↓ Опрос

        Вы добавили сайт в закладки?
        Да
        Нет


        Top 10 за месяц (Передачи)

        Алексей Широков, Александр Шапочкин | Попаданец 2.0 (2017) [FB2]

        (скачиваний: 9)
        Михаил Задорнов. Лучшее - сборник лучших эстрадных номеров Михаила Задорнова за 30 лет (1984-2014) WEBRip скачать через торрент бесплатно

        (скачиваний: 8)
        Фигурное катание. Гран-при 2017-2018. 3-й Этап. Кубок Китая 2017. Пекин (Китай). 2 День (04.11.2017) HDTV [H.264 / 1080i-LQ]

        (скачиваний: 7)
        Журнал | Всему свету по совету №1 (228) (январь 2017) [PDF]

        (скачиваний: 6)
        Орел и решка. Перезагрузка (2017.11.07) WEB-DL [H.264 / 720p-LQ] (сезон 14: Ибица. Испания)

        (скачиваний: 6)
        Святитель Феофан Затворник | Собрание сочинений [69 Томов] (2008) [FB2]

        (скачиваний: 5)
        Трэвис Хэйли. Адаптивный автомат Калашникова / Travis Haley: Adaptive Kalash (2011) WEBRip [720p-LQ] скачать через торрент бесплатно

        (скачиваний: 5)
        Горная бригада (2014) HDTVRip [720p-LQ] [Серии: 1-12 из 12] скачать через торрент бесплатно

        (скачиваний: 4)
        Журнал | Рецепты на бис. Спецвыпуск №1 (19) (2017) [PDF]

        (скачиваний: 4)
        Николай Ягодкин | Технология постановки навыков (2013) PCRec [H.264]

        (скачиваний: 4)