.
Авторизация | Регистрация
Хочешь лучшие торренты? Добавь свой email!
Добавить

Торрент скачать бесплатно

» » Однажды в России (2017.09.10) WEB-DL [H.264 / 720p-LQ] (сезон 6, выпуск 2) торрент скачать бесплатно




    Однажды в России (2017.09.10) WEB-DL [H.264 / 720p-LQ] (сезон 6, выпуск 2) торрент скачать бесплатно

    Опубликовал: Админ | Дата: 11-09-2017, 05:00 | Просмотров: 0

    Телекомпания: ТНТ
    Производство: Россия
    Жанр: Юмористическое тв-шоу
    В ролях: Азамат Мусагалиев, Игорь Ласточкин, Ирина Чеснокова, Тимур Тания, Ольга Картункова, Александр Пташенчук, Максим Киселёв, Денис Дорохов, Заур Байцаев, Давид Цаллаев и др.

    Описание

    Шоу Однажды в России, как и многие проекты ТНТ, имеет оригинальный формат. Это будет реальный театр. Бесплатный сыр, сказал кто то из толпы, к чему не понятно. То есть заранее написанный сценарий герой шоу Однажды в России постарается воплотить в повседневной жизни. А это совсем не так просто, как может показаться сначала, но зато очень смешно. Передача построена на чередовании скетчей. Создатели Однажды в России – Семен Слепаков и Слава Дусмухаметов, за плечами которых – продюсирование сериала Интерны, Наша RUSSIA, и других нашумевших фильмов и передач. Бесплатный сыр, сказал кто то из толпы, к чему не понятно. В роли ведущего выступит Вадим Галыгин.
    Россия - богатейшая страна, в которой много нефти, газа и проблем. Самое интересное в это истории, что об этом Потап ничего не знал. Новое шоу ТНТ Однажды в России не решает ни одной из них. Оно над ними смеется.

    Возраст: 16+ (зрителям, достигшим 16 лет)
    Дата премьеры в РФ: 28 сентября 2014

    Релиз от: svlesin
    Продолжительность: 00: 43: 29
    Качество видео: WEB-DL
    Субтитры: Отсутствуют
    Видео: AVC, 1280x720 (16: 9), 25.000 fps, 3 511 Kbps (0.152 bit/pixel)
    Аудио: AC-3, 44.1 KHz, 2 ch, 192 Kbps, CBR
    Код: выделить все
    Общее
    Уникальный идентификатор : 173440791590564378336162882483039135639 (0x827B7B3DB3BD0DB8A4DA2C68ED2E6797)
    Полное имя : D:[1]Однажды в РоссииОднажды в России. Сезон 6. Выпуск 02 (2017.09.10)_720.mkv
    Формат : Matroska
    Версия формата : Version 4/Version 2
    Размер файла : 1, 15 Гбайт
    Продолжительность : 43 м.
    Общий поток : 3778 Кбит/сек
    Название фильма : Однажды в России. Сезон 6. Выпуск 02 (2017.09.10)_720__nnm-club.name
    Дата кодирования : UTC 2017-09-10 20:28:09
    Программа кодирования : mkvmerge v15.0.0 (\'Duel with the Devil\') 64-bit
    Библиотека кодирования : libebml v1.3.5 + libmatroska v1.4.5
    DURATION : 00:43:29.041000000
    NUMBER_OF_FRAMES : 74908
    NUMBER_OF_BYTES : 62616972
    _STATISTICS_WRITING_APP : mkvmerge v15.0.0 (\'Duel with the Devil\') 64-bit
    _STATISTICS_WRITING_DATE_UTC : 2017-09-10 20:28:09
    _STATISTICS_TAGS : BPS DURATION NUMBER_OF_FRAMES NUMBER_OF_BYTES
    Видео
    Идентификатор : 1
    Формат : AVC
    Формат/Информация : Advanced Video Codec
    Профиль формата :High@L3.1
    Параметр CABAC формата : Да
    Параметр ReFrames формата : 1 кадр
    Параметр GOP формата : M=1, N=12
    Идентификатор кодека : V_MPEG4/ISO/AVC
    Продолжительность : 43 м.
    Битрейт : 3511 Кбит/сек
    Ширина : 1280 пикселей
    Высота : 720 пикселей
    Соотношение сторон : 16:9
    Режим частоты кадров : Постоянный
    Частота кадров : 25, 000 кадров/сек
    Стандарт вещания : Component
    Цветовое пространство : YUV
    Субдискретизация насыщенности : 4:2:0
    Битовая глубина : 8 бит
    Тип развёртки : Прогрессивная
    Бит/(Пиксели*Кадры) : 0.152
    Размер потока : 1, 07 Гбайт (93%)
    Язык : English
    Default : Да
    Forced : Нет
    Цветовой диапазон : Limited
    Аудио
    Идентификатор : 2
    Формат : AC-3
    Формат/Информация : Audio Coding 3
    Расширение режима : CM (complete main)
    Параметр Endianness формата : Big
    Идентификатор кодека : A_AC3
    Продолжительность : 43 м.
    Вид битрейта : Постоянный
    Битрейт : 192 Кбит/сек
    Каналы : 2 канала
    Расположение каналов : Front: L R
    Частота : 44, 1 КГц
    Битовая глубина : 16 бит
    Метод сжатия : С потерями
    Размер потока : 59, 7 Мбайт (5%)
    Default : Да
    Forced : Нет

    Скриншоты для ознакомления



    Все одноименные релизы в Клубе
    Время раздачи: 24/7. До первых 5 скачавших.

    Однажды в России (2017.09.10) WEB-DL [H.264/720p-LQ] (сезон 6, выпуск 2)
    загрузка...
    Рейтинг →
     (голосов: 1, оценка 3/5, голосовать можно 1 раз )

    Другие торренты по теме:

  • Однажды в России. Выпуск 1 (2014.09.28) SATRip
  • Однажды в России. Выпуск 2 (2014.10.05) SATRip скачать через торрент бесплатно
  • Однажды в России. Выпуск 2 (2014.10.05) WEB-DL [H.264 / 720p-LQ] [hand made 50fps] скачать через торрент бесплатно
  • Однажды в России. Выпуск 1 (2014.09.28) WEB-DL [H.264 / 720p-LQ] [hand made 50fps] скачать через торрент бесплатно
  • Однажды в России. Выпуск 3 (2014.10.12) WEB-DL [H.264 / 720p] [hand made 50fps]
  • Однажды в России. Выпуск 3 (2014.10.12) WEB-DLRip
  • Однажды в России. Выпуск 3 (2014.10.12) SATRip скачать через торрент бесплатно
  • Однажды в России. Выпуск 4 (2014.10.19) WEB-DLRip скачать через торрент бесплатно


    • Комментарии (0):

      Информация

      Информация

        Посетители, находящиеся в группе Гости, не могут оставлять комментарии в данной новости.

        ↓ Меню




        ↓ Опрос

        Вы добавили сайт в закладки?
        Да
        Нет


        Top 10 за месяц (Передачи)

        Михаил Задорнов. Лучшее - сборник лучших эстрадных номеров Михаила Задорнова за 30 лет (1984-2014) WEBRip скачать через торрент бесплатно

        (скачиваний: 8)
        Журнал | Всему свету по совету №1 (228) (январь 2017) [PDF]

        (скачиваний: 6)
        Орел и решка. Перезагрузка (2017.11.07) WEB-DL [H.264 / 720p-LQ] (сезон 14: Ибица. Испания)

        (скачиваний: 6)
        Фигурное катание. Гран-при 2017-2018. 3-й Этап. Кубок Китая 2017. Пекин (Китай). 2 День (04.11.2017) HDTV [H.264 / 1080i-LQ]

        (скачиваний: 6)
        Трэвис Хэйли. Адаптивный автомат Калашникова / Travis Haley: Adaptive Kalash (2011) WEBRip [720p-LQ] скачать через торрент бесплатно

        (скачиваний: 5)
        Святитель Феофан Затворник | Собрание сочинений [69 Томов] (2008) [FB2]

        (скачиваний: 5)
        Журнал | Рецепты на бис. Спецвыпуск №1 (19) (2017) [PDF]

        (скачиваний: 4)
        Айрэн По, Джули По | Нумерология, как профессия. Мы из матрицы. Книга 1 (2016) [DJVU]

        (скачиваний: 4)
        Николай Ягодкин | Технология постановки навыков (2013) PCRec [H.264]

        (скачиваний: 4)
        Орел и решка. Перезагрузка (2017.10.30) WEB-DL [H.264 / 720p-LQ] (сезон 14: Барселона. Испания)

        (скачиваний: 4)