.
Авторизация | Регистрация
Хочешь лучшие торренты? Добавь свой email!
Добавить

Торрент скачать бесплатно

» » Фаберже: Особый путь в истории / Faberge: A Life of Its Own (2014) HDTV [H.264 / 1080i-LQ] торрент скачать бесплатно




    Фаберже: Особый путь в истории / Faberge: A Life of Its Own (2014) HDTV [H.264 / 1080i-LQ] торрент скачать бесплатно

    Опубликовал: Админ | Дата: 11-09-2017, 05:00 | Просмотров: 0

    Телекомпания: Великобритания, США, Швейцария, Россия, Монако, Германия, Франция/CoolConnections
    Жанр: Документальный, Искусство, История
    Участники: Сэмюэл Уэст, Патрик Марк

    Описание

    Самая известная фамилия ювелирного мира становится объектом нового подробнейшего исследования в этом документальном фильме. Получив доступ к самым богатым частным коллекциям, в том числе и коллекции королевы Елизаветы II, режиссер картины отслеживает историю бренда от российского императорского двора до сегодняшнего дня, беседуя с ведущими мировыми экспертами и потомками семейства Фаберже. Зрителям впервые будут представлены два редких предмета, относящихся ко всемирно известной марке. Первый — недавно обнаруженное яйцо Фаберже, считавшееся утраченным; его хозяин не представлял, что в его владении было подлинное творение дома Фаберже, и намеревался продать его на переплавку. Второй — абсолютно новое изделие, созданное специально к столетнему юбилею изготовления последнего яйца Фаберже по заказу императора Николая II.

    Продолжительность: 01: 20: 14
    Качество видео: HDTV 1080i
    Перевод: Многоголосый закадровый, профессиональный (Первый канал)
    Субтитры: Русские, teletext (888)
    Видео: AVC/H.264, 1920х1080, ~6364 kbps
    Аудио #1: MP2, 48 kHz, 2 ch, 224 kbps | MVO
    Аудио #2: АС-3, 48 kHz, 6 ch, 384 kbps | MVO

    Общее
    Идентификатор : 16 (0x10)
    Полное имя : Faberge A Life of Its Own_HD.ts
    Формат : MPEG-TS
    Размер файла : 4, 12 Гбайт
    Продолжительность : 1 ч. 20 м.
    Режим общего битрейта : Переменный
    Общий поток : 7341 Кбит/сек
    Видео
    Идентификатор : 1902 (0x76E)
    Идентификатор меню : 92 (0x5C)
    Формат : AVC
    Формат/Информация : Advanced Video Codec
    Профиль формата : High@L4
    Параметр CABAC формата : Да
    Параметр ReFrames формата : 3 кадра
    Идентификатор кодека : 27
    Продолжительность : 1 ч. 20 м.
    Битрейт : 6364 Кбит/сек
    Ширина : 1920 пикселей
    Высота : 1080 пикселей
    Соотношение сторон : 16: 9
    Частота кадров : 25, 000 кадров/сек
    Стандарт вещания : PAL
    Цветовое пространство : YUV
    Субдискретизация насыщенности : 4: 2: 0
    Битовая глубина : 8 бит
    Тип развёртки : Чересстрочная
    Метод сохранения типа развёртки : Раздельные поля
    Порядок развёртки : Верхнее поле первое
    Бит/(Пиксели*Кадры) : 0.123
    Размер потока : 3, 57 Гбайт (87%)
    Цветовой диапазон : Limited
    Основные цвета : BT.709
    Характеристики трансфера : BT.709
    Коэффициенты матрицы : BT.709
    Аудио #1
    Идентификатор : 2902 (0xB56)
    Идентификатор меню : 92 (0x5C)
    Формат : MPEG Audio
    Версия формата : Version 1
    Профиль формата : Layer 2
    Идентификатор кодека : 4
    Продолжительность : 1 ч. 20 м.
    Вид битрейта : Постоянный
    Битрейт : 224 Кбит/сек
    Каналы : 2 канала
    Частота : 48, 0 КГц
    Метод сжатия : С потерями
    Задержка видео : 13 мс.
    Размер потока : 129 Мбайт (3%)
    Язык : std
    Язык, дополнительно : Clean effects
    Аудио #2
    Идентификатор : 3902 (0xF3E)
    Идентификатор меню : 92 (0x5C)
    Формат : AC-3
    Формат/Информация : Audio Coding 3
    Параметр Endianness формата : Big
    Идентификатор кодека : 6
    Продолжительность : 1 ч. 20 м.
    Вид битрейта : Постоянный
    Битрейт : 384 Кбит/сек
    Каналы : 6 каналов
    Расположение каналов : Front: L C R, Side: L R, LFE
    Частота : 48, 0 КГц
    Частота кадров : 31, 250 кадров/сек (1536 spf)
    Битовая глубина : 16 бит
    Метод сжатия : С потерями
    Задержка видео : 144 мс.
    Размер потока : 220 Мбайт (5%)
    Язык : std
    Язык, дополнительно : Clean effects
    ServiceKind/String : Complete Main
    Прочее #1
    Идентификатор : 33 (0x21)-100
    Идентификатор меню : 92 (0x5C)
    Формат : Teletext
    Прочее #2
    Идентификатор : 33 (0x21)-888
    Идентификатор меню : 92 (0x5C)
    Формат : Teletext
    Язык, дополнительно : Additional information page

    Скриншоты для ознакомления



    Все одноименные релизы в Клубе
    Время раздачи: Пн-Пт с 18: 00 до 22: 00 (до появления первых 3-5 скачавших)

    Фаберже: Особый путь в истории/Faberge: A Life of Its Own (2014) HDTV [H.264/1080i-LQ]
    загрузка...
    Рейтинг →
     (голосов: 1, оценка 3/5, голосовать можно 1 раз )

    Другие торренты по теме:

  • Фаберже: Особый путь в истории / Faberge: A Life of Its Own (2014) IPTVRip [H.264] [MP4|1280x720]


    • Комментарии (0):

      Информация

      Информация

        Посетители, находящиеся в группе Гости, не могут оставлять комментарии в данной новости.

        ↓ Меню




        ↓ Опрос

        Вы добавили сайт в закладки?
        Да
        Нет


        Top 10 за месяц (Передачи)

        Алексей Широков, Александр Шапочкин | Попаданец 2.0 (2017) [FB2]

        (скачиваний: 9)
        Михаил Задорнов. Лучшее - сборник лучших эстрадных номеров Михаила Задорнова за 30 лет (1984-2014) WEBRip скачать через торрент бесплатно

        (скачиваний: 8)
        Фигурное катание. Гран-при 2017-2018. 3-й Этап. Кубок Китая 2017. Пекин (Китай). 2 День (04.11.2017) HDTV [H.264 / 1080i-LQ]

        (скачиваний: 7)
        Орел и решка. Перезагрузка (2017.11.07) WEB-DL [H.264 / 720p-LQ] (сезон 14: Ибица. Испания)

        (скачиваний: 6)
        Журнал | Всему свету по совету №1 (228) (январь 2017) [PDF]

        (скачиваний: 6)
        Трэвис Хэйли. Адаптивный автомат Калашникова / Travis Haley: Adaptive Kalash (2011) WEBRip [720p-LQ] скачать через торрент бесплатно

        (скачиваний: 5)
        Святитель Феофан Затворник | Собрание сочинений [69 Томов] (2008) [FB2]

        (скачиваний: 5)
        Comedy Club (2010-2014) SATRip / WEB-DLRip [Выпуск: 201-363] скачать через торрент бесплатно

        (скачиваний: 4)
        Айрэн По, Джули По | Нумерология, как профессия. Мы из матрицы. Книга 1 (2016) [DJVU]

        (скачиваний: 4)
        Горная бригада (2014) HDTVRip [720p-LQ] [Серии: 1-12 из 12] скачать через торрент бесплатно

        (скачиваний: 4)