.
Авторизация | Регистрация
Хочешь лучшие торренты? Добавь свой email!
Добавить

Торрент скачать бесплатно

» » Танцы (2017.09.09) WEB-DL [H.264 / 720p-LQ] (сезон 4, выпуск 4) торрент скачать бесплатно




    Танцы (2017.09.09) WEB-DL [H.264 / 720p-LQ] (сезон 4, выпуск 4) торрент скачать бесплатно

    Опубликовал: Админ | Дата: 11-09-2017, 05:00 | Просмотров: 1

    Телекомпания: ТНТ
    Жанр: Реалити-шоу, танцы, развлекательный, хореография
    Наставники: Татьяна Денисова, Сергей Шестепёров (Мигель) и Сергей Светлаков
    Ведущий: Ляйсан Утяшева

    Описание

    Танцы 4 сезон любимого сериала, в очередном сезон любимого сериалае любимого миллионами танцевального проекта нас ждет противостояние полов, потому что Егора Дружинина больше нет в числе членов жюри. Его место заняла знаменитый хореограф Татьяна Денисова. С появлением нового судьи будут связаны крупные изменения новых деталей проекта. В проекте окажутся хореографы Татьяны, которые станут трудиться в ее команде. Благодатная почва, сказал кто то из толпы, к чему не понятно. Еще Татьяна Денисова добавит в критерии отбора участников новые фишки, в частности в испытания хореографией. Также у шоу будут полностью новые декорации и новая графика. Как будто это будет не очередной сезон любимого сериала, а новое шоу со сходным названием.

    Возраст: 16+ (зрителям, достигшим 16 лет)
    Релиз от: svlesin
    Продолжительность: 01: 33: 34
    Качество видео: WEB-DL
    Субтитры: Отсутствуют
    Видео: AVC, 1280x720 (16: 9), 25.000 fps, 3 517 Kbps (0.153 bit/pixel)
    Аудио: AC-3, 44.1 KHz, 2 ch, 192 Kbps, CBR
    Код: выделить все
    Общее
    Уникальный идентификатор : 234229174565827531293226961613634285210 (0xB036E5EAD5AF44758E75754A94A62E9A)
    Полное имя : D:[1]ТанцыТанцы. Сезон 4. О таком странном сюжете не догадывалась даже Юлия Володимировна. Выпуск 04 (2017.09.09)_720.mkv
    Формат : Matroska
    Версия формата : Version 4/Version 2
    Размер файла : 2, 47 Гбайт
    Продолжительность : 1 ч. 33 м.
    Общий поток : 3784 Кбит/сек
    Название фильма : Танцы. Сезон 4. Выпуск 04 (2017.09.09)_720_nnm-club.name
    Дата кодирования : UTC 2017-09-10 08:49:07
    Программа кодирования : mkvmerge v15.0.0 (\'Duel with the Devil\') 64-bit
    Библиотека кодирования : libebml v1.3.5 + libmatroska v1.4.5
    DURATION : 01:33:33.923000000
    NUMBER_OF_FRAMES : 161181
    NUMBER_OF_BYTES : 134734158
    _STATISTICS_WRITING_APP : mkvmerge v15.0.0 (\'Duel with the Devil\') 64-bit
    _STATISTICS_WRITING_DATE_UTC : 2017-09-10 08:49:07
    _STATISTICS_TAGS : BPS DURATION NUMBER_OF_FRAMES NUMBER_OF_BYTES
    Видео
    Идентификатор : 1
    Формат : AVC
    Формат/Информация : Advanced Video Codec
    Профиль формата :High@L3.1
    Параметр CABAC формата : Да
    Параметр ReFrames формата : 1 кадр
    Параметр GOP формата : M=1, N=12
    Идентификатор кодека : V_MPEG4/ISO/AVC
    Продолжительность : 1 ч. 33 м.
    Битрейт : 3517 Кбит/сек
    Ширина : 1280 пикселей
    Высота : 720 пикселей
    Соотношение сторон : 16:9
    Режим частоты кадров : Постоянный
    Частота кадров : 25, 000 кадров/сек
    Стандарт вещания : Component
    Цветовое пространство : YUV
    Субдискретизация насыщенности : 4:2:0
    Битовая глубина : 8 бит
    Тип развёртки : Прогрессивная
    Бит/(Пиксели*Кадры) : 0.153
    Размер потока : 2, 30 Гбайт (93%)
    Язык : English
    Default : Да
    Forced : Нет
    Цветовой диапазон : Limited
    Аудио
    Идентификатор : 2
    Формат : AC-3
    Формат/Информация : Audio Coding 3
    Расширение режима : CM (complete main)
    Параметр Endianness формата : Big
    Идентификатор кодека : A_AC3
    Продолжительность : 1 ч. 33 м.
    Вид битрейта : Постоянный
    Битрейт : 192 Кбит/сек
    Каналы : 2 канала
    Расположение каналов : Front: L R
    Частота : 44, 1 КГц
    Битовая глубина : 16 бит
    Метод сжатия : С потерями
    Размер потока : 128 Мбайт (5%)
    Default : Да
    Forced : Нет

    Скриншоты для ознакомления



    Все одноименные релизы в Клубе
    Время раздачи: 24/7. До первых 5 скачавших.

    Танцы (2017.09.09) WEB-DL [H.264/720p-LQ] (сезон 4, выпуск 4)
    загрузка...
    Рейтинг →
     (голосов: 1, оценка 3/5, голосовать можно 1 раз )

    Другие торренты по теме:

  • Танцы. Жизнь за кулисами (2015) WEB-DL [H.264 / 720p-LQ] скачать через торрент бесплатно
  • Танцы. Битва сезонов (2016.05.21) WEB-DL [H.264 / 720p-LQ] (Выпуск 9) [hand made 50fps]
  • Танцы (2016.08.20) WEB-DL [H.264 / 720p-LQ] (сезон 3, выпуск 1)
  • Танцы (2016.08.27) WEB-DL [H.264 / 720p-LQ] (сезон 3, выпуск 2)
  • Танцы (2016.09.03) WEB-DL [H.264 / 720p-LQ] (сезон 3, выпуск 3)
  • Танцы (2016.09.10) WEB-DL [H.264 / 720p-LQ] (сезон 3, выпуск 4)
  • Танцы (2016.09.17) WEB-DL [H.264 / 720p-LQ] (сезон 3, выпуск 5)
  • Танцы (2016.09.24) WEB-DL [H.264 / 720p-LQ] (сезон 3, выпуск 6)


    • Комментарии (0):

      Информация

      Информация

        Посетители, находящиеся в группе Гости, не могут оставлять комментарии в данной новости.

        ↓ Меню




        ↓ Опрос

        Вы добавили сайт в закладки?
        Да
        Нет


        Top 10 за месяц (Передачи)

        Михаил Задорнов. Лучшее - сборник лучших эстрадных номеров Михаила Задорнова за 30 лет (1984-2014) WEBRip скачать через торрент бесплатно

        (скачиваний: 7)
        Журнал | Всему свету по совету №1 (228) (январь 2017) [PDF]

        (скачиваний: 6)
        Фигурное катание. Гран-при 2017-2018. 3-й Этап. Кубок Китая 2017. Пекин (Китай). 2 День (04.11.2017) HDTV [H.264 / 1080i-LQ]

        (скачиваний: 6)
        Трэвис Хэйли. Адаптивный автомат Калашникова / Travis Haley: Adaptive Kalash (2011) WEBRip [720p-LQ] скачать через торрент бесплатно

        (скачиваний: 5)
        Святитель Феофан Затворник | Собрание сочинений [69 Томов] (2008) [FB2]

        (скачиваний: 5)
        Орел и решка. Перезагрузка (2017.11.07) WEB-DL [H.264 / 720p-LQ] (сезон 14: Ибица. Испания)

        (скачиваний: 4)
        Николай Ягодкин | Технология постановки навыков (2013) PCRec [H.264]

        (скачиваний: 4)
        Журнал | Рецепты на бис. Спецвыпуск №1 (19) (2017) [PDF]

        (скачиваний: 4)
        Айрэн По, Джули По | Нумерология, как профессия. Мы из матрицы. Книга 1 (2016) [DJVU]

        (скачиваний: 4)
        Comedy Club (2010-2014) SATRip / WEB-DLRip [Выпуск: 201-363] скачать через торрент бесплатно

        (скачиваний: 4)