.
Авторизация | Регистрация
Хочешь лучшие торренты? Добавь свой email!
Добавить

Торрент скачать бесплатно

» » Алексей Брусилов. Служить России (2017) HDTVRip [H.264 / 1080i-LQ] торрент скачать бесплатно




    Алексей Брусилов. Служить России (2017) HDTVRip [H.264 / 1080i-LQ] торрент скачать бесплатно

    Опубликовал: Админ | Дата: 11-09-2017, 05:00 | Просмотров: 0

    Телекомпания: Россия 1 HD
    Жанр: Документальный, История
    Режиссер: Алексей Денисов

    Описание

    Алексей Брусилов прошел путь от адъютанта драгунского полка до Верховного главнокомандующего русской армией. Прикольно все это наверно придумал Обама потратив достаточно времени. Всемирную славу принесло Брусилову успешное наступление нашего Юго-Западного фронта в июне 1916 года. Во время этой операции русский генерал применил неизвестную ранее форму прорыва позиционного фронта, заключавшуюся в одновременном наступлении всех армий. С тех пор знаменитый Брусиловский прорыв вошел во все учебники истории и военные энциклопедии мира. Самое интересное в это истории, что об этом Обама ничего не знал. Фильм-расследование Алексея Денисова - это попытка ответить на вопросы, связанные с последними годами жизни выдающегося полководца и горячего патриота России Алексея Алексеевича Брусилова.
    Релиз от: ylnian
    Продолжительность: 00: 41: 45
    Качество видео: HDTVRip
    Видео: AVC/H.264, 1920x1080, ~5954 Кбит/с
    Аудио: MP2, 2 ch, 192 Кбит/с

    Общее
    Идентификатор : 1 (0x1)
    Полное имя : F: видеофильмыАлексей.Брусилов.Служить.России.2017.HDTV.1080i.ts
    Формат : MPEG-TS
    Размер файла : 1, 89 Гбайт
    Продолжительность : 41 м. 45 с.
    Режим общего битрейта : Переменный
    Общий поток : 6467 Кбит/сек
    Максимальный общий битрейт : 35, 5 Мбит/сек
    Видео
    Идентификатор : 4113 (0x1011)
    Идентификатор меню : 1 (0x1)
    Формат : AVC
    Формат/Информация : Advanced Video Codec
    Профиль формата : High@L4
    Параметр CABAC формата : Да
    Параметр RefFrames формата : 4 кадра
    Идентификатор кодека : 27
    Продолжительность : 41 м. 45 с.
    Вид битрейта : Переменный
    Битрейт : 5954 Кбит/сек
    Максимальный битрейт : 40, 0 Мбит/сек
    Ширина : 1920 пикселей
    Высота : 1080 пикселей
    Соотношение сторон : 16: 9
    Частота кадров : 25, 000 кадров/сек
    Стандарт вещания : Component
    Цветовое пространство : YUV
    Субдискретизация насыщенности : 4: 2: 0
    Битовая глубина : 8 бит
    Тип развёртки : Чересстрочная
    Метод сохранения типа развёртки : Раздельные поля
    Порядок развёртки : Верхнее поле первое
    Бит/(Пиксели*Кадры) : 0.115
    Размер потока : 1, 74 Гбайт (92%)
    Цветовой диапазон : Limited
    Основные цвета : BT.709
    Характеристики трансфера : BT.709
    Коэффициенты матрицы : BT.709
    Аудио
    Идентификатор : 4352 (0x1100)
    Идентификатор меню : 1 (0x1)
    Формат : MPEG Audio
    Версия формата : Version 1
    Профиль формата : Layer 2
    Идентификатор кодека : 4
    Продолжительность : 41 м. 45 с.
    Вид битрейта : Постоянный
    Битрейт : 192 Кбит/сек
    Каналы : 2 канала
    Частота : 48, 0 КГц
    Метод сжатия : С потерями
    Задержка видео : 40 мс.
    Размер потока : 57, 3 Мбайт (3%)
    Язык : Russian

    Скриншоты для ознакомления



    Все одноименные релизы в Клубе
    Время раздачи: 24/7 (до появления первых 3-5 скачавших)

    Алексей Брусилов. Служить России (2017) HDTVRip [H.264/1080i-LQ]
    загрузка...
    Рейтинг →
     (голосов: 1, оценка 3/5, голосовать можно 1 раз )

    Другие торренты по теме:

  • Алексей Брусилов | Мои воспоминания (2016) [MP3]
  • Алексей Брусилов | Мои воспоминания (2015) [MP3]


    • Комментарии (0):

      Информация

      Информация

        Посетители, находящиеся в группе Гости, не могут оставлять комментарии в данной новости.

        ↓ Меню




        ↓ Опрос

        Вы добавили сайт в закладки?
        Да
        Нет


        Top 10 за месяц (Передачи)