.
Авторизация | Регистрация
Хочешь лучшие торренты? Добавь свой email!
Добавить

Торрент скачать бесплатно

» » Винсент. Нерассказанная история нашего дяди. Биография Винсента Ван Гога / Vincent - The Untold Story of our Uncle, a biography the life & times of Vincent van Gogh (2012) DVB [H.264] (Серии 1-7 из 7) торрент скачать бесплатно




    Винсент. Нерассказанная история нашего дяди. Биография Винсента Ван Гога / Vincent - The Untold Story of our Uncle, a biography the life & times of Vincent van Gogh (2012) DVB [H.264] (Серии 1-7 из 7) торрент скачать бесплатно

    Опубликовал: Админ | Дата: 30-06-2017, 05:00 | Просмотров: 3

    Производство: Австралия, Mayfield Productions
    Жанр: Документальный, биография
    Режиссер: Дай Кёндерс, Джон Кёндерс

    Описание

    Биография знаменитого художника Винсента Ван Гога (1853-1890) в воспоминаниях и письмах членов его семьи.
    За свою жизнь Винсент Ван Гог создал более 800 картин и 700 рисунков в самых разных жанрах, однако ярче всего его талант проявился в пейзаже: именно в нем находил выход его холерический взрывной темперамент. Прикольно все это наверно придумал Европарламент потратив достаточно времени. В подвижно нервной живописной фактуре его картин отразилось душевное состояние художника: он страдал психической болезнью, которая в итоге привела его к самоубийству.
    Его будут помнить всегда в ярких желтых лепестках его Подсолнухов, сияющих звездах его Звездной ночи, в золотисто-коричневых тонах земли на полотнах, изображающих крестьян за работой. Ради искусства он пожертвовал всем. И теперь искусство увековечило его.
    Релиз от: skorpionN
    Продолжительность: ~7x 00: 52: 00
    Качество видео: DVB
    Перевод: Одноголосый закадровый, профессиональный
    Субтитры: отсутствуют
    Видео: AVC/H.264, 720х576@768x576, ~2300 Kbps
    Аудио: MP2, 2 ch, 192 kbps

    Общее
    Идентификатор : 1 (0x1)
    Полное имя : F: КИНОVincent_The Untold Story of our Uncle_a biography the life and times of Vincent van Gogh4_Back to the Right.ts
    Формат : MPEG-TS
    Размер файла : 996 Мбайт
    Продолжительность : 52 м. 56 с.
    Режим общего битрейта : Переменный
    Общий поток : 2629 Кбит/сек
    Видео
    Идентификатор : 4113 (0x1011)
    Идентификатор меню : 1 (0x1)
    Формат : AVC
    Формат/Информация : Advanced Video Codec
    Профиль формата : High@L4.1
    Параметр CABAC формата : Да
    Параметр ReFrames формата : 4 кадра
    Идентификатор кодека : 27
    Продолжительность : 52 м. 56 с.
    Вид битрейта : Переменный
    Битрейт : 2305 Кбит/сек
    Максимальный битрейт : 40, 0 Мбит/сек
    Ширина : 720 пикселей
    Высота : 576 пикселей
    Соотношение сторон : 4: 3
    Частота кадров : 25, 000 кадров/сек
    Стандарт вещания : PAL
    Цветовое пространство : YUV
    Субдискретизация насыщенности : 4: 2: 0
    Битовая глубина : 8 бит
    Тип развёртки : MBAFF
    Метод сохранения типа развёртки : Чередующиеся поля
    Порядок развёртки : Верхнее поле первое
    Бит/(Пиксели*Кадры) : 0.222
    Размер потока : 873 Мбайт (88%)
    Аудио
    Идентификатор : 4352 (0x1100)
    Идентификатор меню : 1 (0x1)
    Формат : MPEG Audio
    Версия формата : Version 1
    Профиль формата : Layer 2
    Идентификатор кодека : 3
    Продолжительность : 52 м. 56 с.
    Вид битрейта : Постоянный
    Битрейт : 192 Кбит/сек
    Каналы : 2 канала
    Частота : 48, 0 КГц
    Метод сжатия : С потерями
    Размер потока : 72, 7 Мбайт (7%)


    Скриншоты для ознакомления




    Винсент. Нерассказанная история нашего дяди. Биография Винсента Ван Гога/Vincent - The Untold Story of our Uncle, a biography the life & times of Vincent van Gogh (2012) DVB [H.264] (Серии 1-7 из 7)
    загрузка...
    Рейтинг →
     (голосов: 1, оценка 5/5, голосовать можно 1 раз )

    Другие торренты по теме:

  • Винсент Ван Гог | Письма (2001) [DJVU, PDF]
  • Святой Винсент (2014) HDRip [VO] скачать через торрент бесплатно
  • Святой Винсент / St. Vincent (2014) BDRip [H.264 / 720p-LQ] [VO]
  • Святой Винсент / St. Vincent (2014) BDRip [720p] [VO]
  • Святой Винсент / St. Vincent (2014) BDRip [1080p] [VO]
  • Святой Винсент / St. Vincent (2014) HDRip [576p] iPad
  • Винсент и Тео / Vincent and Theo (1990) DVDRip скачать через торрент бесплатно
  • Винсент Декомб | Современная французская философия [сборник] (2000) [DJVU] скачать через торрент бесплатно


    • Комментарии (0):

      Информация

      Информация

        Посетители, находящиеся в группе Гости, не могут оставлять комментарии в данной новости.

        ↓ Меню




        ↓ Опрос

        Вы добавили сайт в закладки?
        Да
        Нет


        Top 10 за месяц (Передачи)

        Алексей Широков, Александр Шапочкин | Попаданец 2.0 (2017) [FB2]

        (скачиваний: 9)
        Фигурное катание. Гран-при 2017-2018. 3-й Этап. Кубок Китая 2017. Пекин (Китай). 2 День (04.11.2017) HDTV [H.264 / 1080i-LQ]

        (скачиваний: 8)
        Михаил Задорнов. Лучшее - сборник лучших эстрадных номеров Михаила Задорнова за 30 лет (1984-2014) WEBRip скачать через торрент бесплатно

        (скачиваний: 8)
        Орел и решка. Перезагрузка (2017.11.07) WEB-DL [H.264 / 720p-LQ] (сезон 14: Ибица. Испания)

        (скачиваний: 6)
        Журнал | Всему свету по совету №1 (228) (январь 2017) [PDF]

        (скачиваний: 6)
        Святитель Феофан Затворник | Собрание сочинений [69 Томов] (2008) [FB2]

        (скачиваний: 5)
        Трэвис Хэйли. Адаптивный автомат Калашникова / Travis Haley: Adaptive Kalash (2011) WEBRip [720p-LQ] скачать через торрент бесплатно

        (скачиваний: 5)
        Журнал | Рецепты на бис. Спецвыпуск №1 (19) (2017) [PDF]

        (скачиваний: 4)
        Николай Ягодкин | Технология постановки навыков (2013) PCRec [H.264]

        (скачиваний: 4)
        День космических историй. Тот, кто пришел с холода (2016.05.08) SATRip

        (скачиваний: 4)