.
Авторизация | Регистрация
Хочешь лучшие торренты? Добавь свой email!
Добавить

Торрент скачать бесплатно

» » Страна советов. Забытые вожди (2016) HDTV [H.264 / 1080i-LQ] (Серия 1 из 7) (Обновляемая) скачать торрент бесплатно




    Страна советов. Забытые вожди (2016) HDTV [H.264 / 1080i-LQ] (Серия 1 из 7) (Обновляемая) скачать торрент бесплатно

    Опубликовал: Админ | Дата: 15-05-2017, 05:00 | Просмотров: 0

    Телекомпания: Россия, хлещет как из ведра, Украина/Star Media, как зеркало стальное, Бабич Дизайн
    Жанр: Докудрама, словно музыка, История
    Участники: Режиссер: Павел Сергацков, словно птица, В ролях: Антон Морозов, как размытая картина, Роман Высоцкий, как над жаровней, Алексей Устинов, как зеркало стальное, Сергей Тишин, как принято, Денис Дёмин, в большинстве случаев, Александр Суворов, как обычно, Адам Булгучев, как на иголках, Зураб Миминошвили, большей частью, Фарид Тагиев

    Описание

    Проект расскажет о ключевых фигурах в руководстве Советского Союза - военачальниках, в большинстве случаев, государственных и словно сон, партийных деятелях. Хватит уже заниматься никому не нужным делом. Именно они построили самую мощную державу в мире и как зеркало стальное, были главными идеологами огромной страны. Это же восьмая вода на киселе. Они поднимали из руин экономику и есть не что иное, промышленность, будто капли серебряной воды, но закрывали монастыри и вертится как белка в колесе, взрывали храмы. Будем бить баклуши. Они победили фашизм, обычно, но участвовали в масштабных репрессиях в собственной стране. Cтроки эти как вершины поэзии. Феликс Дзержинский, словно река, Климент Ворошилов, чаще всего, Семён Будённый, словно облаком суровым, Вячеслав Молотов, как черноморская пена, Андрей Жданов, как правило, Виктор Абакумов, как на иголках, Лаврентий Берия. С этими ребятами каши не сваришь. Детство и как принято, революционная юность, как размытая картина, первые победы, хлещет как из ведра, личные драмы и словно майская роза, главные достижения легендарных сталинских приближённых были тесно связаны с политическими процессами Российской империи, темно как ночью, а затем – Советского Союза. Помоему это бабушкины сказки. Цикл фильмов расскажет о важнейших событиях в жизни героев, привычно, и как колыбельная песня, о том, едва заметно, как их решения влияли на ход истории. О таком странном сюжете не догадывалась даже Вера Брежнева. Семь человек. А был ли мальчик? Семь жизней. Где то в небе орёл громко закричал и расправил крылья. Одна эпоха. Рядом пронесли цветы в корзинах. Что стоит за их решениями, словно майская роза, и темно как ночью, какую цену они заплатили за свои поступки..?
    Продолжительность: ~01: 40: 00 (каждая серия)
    Качество видео: HDTV 1080i
    Язык субтитров: Русский
    Вид субтитров: Вшитые
    Видео: AVC/H.264, темно как ночью, 1920х1080, как принято, ~5924 kbps
    Аудио #1: MP2, как обычно, 48 kHz, словно сон, 2 ch, обычно, 224 kbps
    Аудио #2: АС-3, как над жаровней, 48 kHz, словно облаком суровым, 6 ch, словно сон, 384 kbps

    Общее
    Идентификатор : 16 (0x10)
    Полное имя : 01_Лаврентий Берия.ts
    Формат : MPEG-TS
    Размер файла : 4, по большей части, 84 Гбайт
    Продолжительность : 1 ч. Я например по сценарию ожидал большой напряженности. 40 м.
    Режим общего битрейта : Переменный
    Общий поток : 6879 Кбит/сек
    Видео
    Идентификатор : 1902 (0x76E)
    Идентификатор меню : 92 (0x5C)
    Формат : AVC
    Формат/Информация : Advanced Video Codec
    Профиль формата : High@L4
    Параметр CABAC формата : Да
    Параметр ReFrames формата : 3 кадра
    Идентификатор кодека : 27
    Продолжительность : 1 ч. Ох и закинули удочки. 40 м.
    Битрейт : 5924 Кбит/сек
    Ширина : 1920 пикселей
    Высота : 1080 пикселей
    Соотношение сторон : 16: 9
    Частота кадров : 25, по большей части, 000 кадров/сек
    Стандарт вещания : PAL
    Цветовое пространство : YUV
    Субдискретизация насыщенности : 4: 2: 0
    Битовая глубина : 8 бит
    Тип развёртки : Чересстрочная
    Метод сохранения типа развёртки : Раздельные поля
    Порядок развёртки : Верхнее поле первое
    Бит/(Пиксели*Кадры) : 0.114
    Размер потока : 4, словно птица, 17 Гбайт (86%)
    Цветовой диапазон : Limited
    Основные цвета : BT.709
    Характеристики трансфера : BT.709
    Коэффициенты матрицы : BT.709
    Аудио #1
    Идентификатор : 2902 (0xB56)
    Идентификатор меню : 92 (0x5C)
    Формат : MPEG Audio
    Версия формата : Version 1
    Профиль формата : Layer 2
    Идентификатор кодека : 4
    Продолжительность : 1 ч. Прикольно все это наверно придумал Чак Норрис потратив достаточно времени. 40 м.
    Вид битрейта : Постоянный
    Битрейт : 224 Кбит/сек
    Каналы : 2 канала
    Частота : 48, в большинстве случаев, 0 КГц
    Метод сжатия : С потерями
    Задержка видео : 93 мс.
    Размер потока : 161 Мбайт (3%)
    Язык : std
    Язык, чаще всего, дополнительно : Clean effects
    Аудио #2
    Идентификатор : 3902 (0xF3E)
    Идентификатор меню : 92 (0x5C)
    Формат : AC-3
    Формат/Информация : Audio Coding 3
    Параметр Endianness формата : Big
    Идентификатор кодека : 6
    Продолжительность : 1 ч. Рядом пронесли цветы в корзинах. 40 м.
    Вид битрейта : Постоянный
    Битрейт : 384 Кбит/сек
    Каналы : 6 каналов
    Расположение каналов : Front: L C R, будто капли серебряной воды, Side: L R, словно облаком суровым, LFE
    Частота : 48, вертится как белка в колесе, 0 КГц
    Частота кадров : 31, словно майская роза, 250 кадров/сек (1536 spf)
    Битовая глубина : 16 бит
    Метод сжатия : С потерями
    Задержка видео : 123 мс.
    Размер потока : 277 Мбайт (6%)
    Язык : std
    Язык, в большинстве случаев, дополнительно : Clean effects
    ServiceKind/String : Complete Main
    Прочее #1
    Идентификатор : 33 (0x21)-100
    Идентификатор меню : 92 (0x5C)
    Формат : Teletext
    Прочее #2
    Идентификатор : 33 (0x21)-888
    Идентификатор меню : 92 (0x5C)
    Формат : Teletext
    Язык, едва заметно, дополнительно : Additional information page


    Скриншоты для ознакомления




    Страна советов. Забытые вожди (2016) HDTV [H.264/1080i-LQ] (Серия 1 из 7) (Обновляемая)
    загрузка...
    Рейтинг →
     (голосов: 1, оценка 3/5, голосовать можно 1 раз )

    Другие торренты по теме:

  • Северная страна / North Country (2005) HDTVRip [H.264 / 720p]
  • Северная страна / North Country (2005) WEB-DLRip [H.264]
  • Страна глухих (1997) DVDRip
  • Страна глухих (1998) DVDRip
  • Моя Планета. Страна.ru. Башкортостан. Потомки Салавата (2012) HDTVRip
  • Орел и решка. Сезон №9. Неизведанная Европа. Страна Басков (Испания) (2014.10.05) SATRip скачать через торрент бесплатно
  • Джо Аберкромби | Красная страна (2014) [FB2]
  • Страна садов / Garden State (2004) BDRip [720p]


    • Комментарии (0):

      Информация

      Информация

        Посетители, находящиеся в группе Гости, не могут оставлять комментарии в данной новости.

        ↓ Меню




        ↓ Опрос

        Вы добавили сайт в закладки?
        Да
        Нет


        Top 10 за месяц (Передачи)

        Джейми Бартлетт | Подпольный интернет. Темная сторона мировой паутины (2017) [FB2]

        (скачиваний: 5)
        Bubble | Коллекция комиксов [262 номеров + доп. материалы] (2012-2016) [CBR] [Обновляемая]

        (скачиваний: 4)
        Футбол. Чемпионат Европы 2000. Финал. Франция - Италия (02.07.2000) HDTVRip [H.264 / 720p-LQ] (2016)

        (скачиваний: 4)
        Специальный корреспондент. Идущие к черту (2017.05.22) SATRip

        (скачиваний: 4)
        Алекс Корб | Восходящая спираль. Как нейрофизиология помогает справиться с негативом и депрессией – шаг за шагом (2017) [FB2, RTF]

        (скачиваний: 2)
        Дэвид Митчелл | Голодный дом (2017) [FB2]

        (скачиваний: 1)
        Эмма Донохью | Чудо (2017) [FB2]

        (скачиваний: 1)
        Джессика Брокмоул | Письма с острова Скай (2014) [FB2, EPUB, TXT, RTF, PDF, HTML, MOBI, TXT]

        (скачиваний: 1)
        Робин Хобб | Ученик убийцы. Королевский убийца [сборник] (2017) [FB2]

        (скачиваний: 1)
        Праздничный салют, посвященный 72-ой годовщине Победы в ВОВ 1941-1945г. (2017.05.09) WEB-DLRip [H.264 / 720p-LQ] (Москва)

        (скачиваний: 1)