.
Авторизация | Регистрация
Хочешь лучшие торренты? Добавь свой email!
Добавить

Торрент скачать бесплатно

» » Соль. Ария (14.03.16) WEBRip [H.264 / 720p-LQ] скачать торрент бесплатно




    Соль. Ария (14.03.16) WEBRip [H.264 / 720p-LQ] скачать торрент бесплатно

    Опубликовал: Админ | Дата: 13-05-2017, 05:00 | Просмотров: 0

    Телекомпания: РЕН ТВ
    Жанр: Телепередача
    Участники: Захар Прилепин, словно птица, Владимир Холстинин, по большей части, Виталий Дубинин, как черноморская пена, Михаил Житняков, в большинстве случаев, Сергей Попов, словно река, Максим Удалов

    Описание

    Ведущий шоу Захар Прилепин - человек с четко выраженной позицией, большей частью, очевидно, как размытая картина, что ему есть, как на иголках, что сказать людям. Cтроки эти как вершины поэзии. Каждая программа начинается с обозначения Прилепиным темы, словно облаком суровым, которая для широкого зрителя является ключевой в текущем информационном поле. Все ожидали другого развития, но получилось вот так. Ведущего и словно майская роза, музыкальных гостей в студии, есть не что иное, по словам самого Прилепина, как на иголках, объединит яркость, как зеркало стальное, талант, хлещет как из ведра, взрывоопасность в интеллектуальном смысле этого слова. Море глухо билось о берег. Музыкантам предлагается высказать свою позицию по теме не столько вербально, как правило, сколько через свое творчество. В воздухе пахло весной. Каждый музыкальный трек - это ответ музыкантов на развитие темы. Плодами и листвой благоухал осенний сад. Но и словно облаком суровым, у Прилепина есть возможность ответить музыкантам, хлещет как из ведра, уточняя не только свою позицию, будто капли серебряной воды, но и как принято, свое отношение к их творчеству. В это время ветер тихо покачивал деревья. В этом споре ведущий и обычно, гости подойдут к тому, словно майская роза, что называется солью вопроса.
    Продолжительность: 01: 29: 18
    Качество видео: WEBRip
    Видео: AVC/H.264, вертится как белка в колесе, 1280x720, обычно, ~1821 kbps
    Аудио: AAC, чаще всего, 2 ch, привычно, 126.00 kbps

    General
    Unique ID : 191945915928005894899041701692023309195 (0x9067704FE10BDE1F8CF88FE5F781038B)
    Complete name : C: DownloadsСоль. С этими ребятами каши не сваришь. Ария (14.03.16).mkv
    Format : Matroska
    Format version : Version 4/Version 2
    File size : 1.22 GiB
    Duration : 1 h 29 min
    Overall bit rate : 1 949 kb/s
    Movie name : Соль. А был ли мальчик? Ария (13.03.16)
    Encoded date : UTC 2017-05-11 14: 03: 07
    Writing application : mkvmerge v10.0.0 (\'To Drown In You\') 64bit
    Writing library : libebml v1.3.4 + libmatroska v1.4.5
    Video
    ID : 1
    Format : AVC
    Format/Info : Advanced Video Codec
    Format profile : Main@L3.1
    Format settings, словно облаком суровым, CABAC : Yes
    Format settings, как обычно, ReFrames : 3 frames
    Codec ID : V_MPEG4/ISO/AVC
    Duration : 1 h 29 min
    Bit rate : 1 821 kb/s
    Width : 1 280 pixels
    Height : 720 pixels
    Display aspect ratio : 16: 9
    Frame rate mode : Constant
    Frame rate : 25.000 FPS
    Color space : YUV
    Chroma subsampling : 4: 2: 0
    Bit depth : 8 bits
    Scan type : Progressive
    Bits/(Pixel*Frame) : 0.079
    Stream size : 1.14 GiB (93%)
    Language : Russian
    Default : Yes
    Forced : No
    Color range : Limited
    Color primaries : BT.709
    Transfer characteristics : BT.709
    Matrix coefficients : BT.709
    Audio
    ID : 2
    Format : AAC
    Format/Info : Advanced Audio Codec
    Format profile : LC
    Codec ID : A_AAC
    Duration : 1 h 29 min
    Bit rate : 126 kb/s
    Channel(s) : 2 channels
    Channel positions : Front: L R
    Sampling rate : 44.1 kHz
    Frame rate : 43.066 FPS (1024 spf)
    Compression mode : Lossy
    Stream size : 80.2 MiB (6%)
    Language : Russian
    Default : Yes
    Forced : No


    Скриншоты для ознакомления




    Соль. Ария (14.03.16) WEBRip [H.264/720p-LQ]
    загрузка...
    Рейтинг →
     (голосов: 1, оценка 4/5, голосовать можно 1 раз )

    Другие торренты по теме:

  • Без обмана. Соль земли русской (2014.10.20) SATRip скачать через торрент бесплатно
  • Борис Гребенщиков - Соль (2014) [MP3|320 кб / с]<Rock>
  • Борис Гребенщиков - Соль (2014) [AAC|WEB-DL|256 кб / с]<Rock> скачать через торрент бесплатно
  • Как оно есть. Соль (2014.11.25) SATRip
  • Научное расследование Сергея Малозёмова: Соль и сахар. Смерть по вкусу (2014.12.20) SATRip скачать через торрент бесплатно
  • Нераскрытые тайны. Чем соль опасна для человека (2014) SATRip
  • Соль Земли / The Salt of the Earth (2014) HDRip скачать через торрент бесплатно
  • Соль (01.11.2015) SATRip скачать через торрент бесплатно


    • Комментарии (0):

      Информация

      Информация

        Посетители, находящиеся в группе Гости, не могут оставлять комментарии в данной новости.

        ↓ Меню




        ↓ Опрос

        Вы добавили сайт в закладки?
        Да
        Нет


        Top 10 за месяц (Передачи)

        Джейми Бартлетт | Подпольный интернет. Темная сторона мировой паутины (2017) [FB2]

        (скачиваний: 5)
        Футбол. Чемпионат Европы 2000. Финал. Франция - Италия (02.07.2000) HDTVRip [H.264 / 720p-LQ] (2016)

        (скачиваний: 4)
        Нераскрытые тайны.Как убивали Берию (2015) SATRip скачать через торрент бесплатно

        (скачиваний: 1)
        Орел и решка. Перезагрузка (2017.05.14) WEB-DL [H.264 / 720p-LQ] (сезон 14: Майами)

        (скачиваний: 1)
        7 чудес Красноярского края. Ергаки (2012) HDTVRip [720p-LQ] скачать через торрент бесплатно

        (скачиваний: 1)
        Jillian Michaels | 10 Minute Body Transformation (2016) WEBRip [H.264 / 720p] [EN]

        (скачиваний: 1)
        Специальный корреспондент. Дебальцевский узел (25.02.2015) HDTV [H264 / 1080i]скачать через торрент бесплатно

        (скачиваний: 1)
        Учебный центр 1C (Басалов Юрий) | Основы программирования в системе "1C:Предприятие 8.3" (2015) PCRec

        (скачиваний: 1)
        Анастасия Левковская | Три желания для художника (2017) [FB2]

        (скачиваний: 1)
        Хрущёв. Первый после Сталина (2014) SATRip скачать через торрент бесплатно

        (скачиваний: 1)