.
Авторизация | Регистрация
Хочешь лучшие торренты? Добавь свой email!
Добавить

Торрент скачать бесплатно

» » Соль. Ария (14.03.16) WEBRip [H.264 / 720p-LQ] торрент скачать бесплатно




    Соль. Ария (14.03.16) WEBRip [H.264 / 720p-LQ] торрент скачать бесплатно

    Опубликовал: Админ | Дата: 13-05-2017, 05:00 | Просмотров: 0

    Телекомпания: РЕН ТВ
    Жанр: Телепередача
    Участники: Захар Прилепин, Владимир Холстинин, Виталий Дубинин, Михаил Житняков, Сергей Попов, Максим Удалов

    Описание

    Ведущий шоу Захар Прилепин - человек с четко выраженной позицией, очевидно, что ему есть, что сказать людям. Каждая программа начинается с обозначения Прилепиным темы, которая для широкого зрителя является ключевой в текущем информационном поле. Ведущего и музыкальных гостей в студии, по словам самого Прилепина, объединит яркость, талант, взрывоопасность в интеллектуальном смысле этого слова. Музыкантам предлагается высказать свою позицию по теме не столько вербально, сколько через свое творчество. Каждый музыкальный трек - это ответ музыкантов на развитие темы. Но и у Прилепина есть возможность ответить музыкантам, уточняя не только свою позицию, но и свое отношение к их творчеству. В этом споре ведущий и гости подойдут к тому, что называется солью вопроса.
    Продолжительность: 01: 29: 18
    Качество видео: WEBRip
    Видео: AVC/H.264, 1280x720, ~1821 kbps
    Аудио: AAC, 2 ch, 126.00 kbps

    General
    Unique ID : 191945915928005894899041701692023309195 (0x9067704FE10BDE1F8CF88FE5F781038B)
    Complete name : C: DownloadsСоль. Ария (14.03.16).mkv
    Format : Matroska
    Format version : Version 4/Version 2
    File size : 1.22 GiB
    Duration : 1 h 29 min
    Overall bit rate : 1 949 kb/s
    Movie name : Соль. Ария (13.03.16)
    Encoded date : UTC 2017-05-11 14: 03: 07
    Writing application : mkvmerge v10.0.0 (\'To Drown In You\') 64bit
    Writing library : libebml v1.3.4 + libmatroska v1.4.5
    Video
    ID : 1
    Format : AVC
    Format/Info : Advanced Video Codec
    Format profile : Main@L3.1
    Format settings, CABAC : Yes
    Format settings, ReFrames : 3 frames
    Codec ID : V_MPEG4/ISO/AVC
    Duration : 1 h 29 min
    Bit rate : 1 821 kb/s
    Width : 1 280 pixels
    Height : 720 pixels
    Display aspect ratio : 16: 9
    Frame rate mode : Constant
    Frame rate : 25.000 FPS
    Color space : YUV
    Chroma subsampling : 4: 2: 0
    Bit depth : 8 bits
    Scan type : Progressive
    Bits/(Pixel*Frame) : 0.079
    Stream size : 1.14 GiB (93%)
    Language : Russian
    Default : Yes
    Forced : No
    Color range : Limited
    Color primaries : BT.709
    Transfer characteristics : BT.709
    Matrix coefficients : BT.709
    Audio
    ID : 2
    Format : AAC
    Format/Info : Advanced Audio Codec
    Format profile : LC
    Codec ID : A_AAC
    Duration : 1 h 29 min
    Bit rate : 126 kb/s
    Channel(s) : 2 channels
    Channel positions : Front: L R
    Sampling rate : 44.1 kHz
    Frame rate : 43.066 FPS (1024 spf)
    Compression mode : Lossy
    Stream size : 80.2 MiB (6%)
    Language : Russian
    Default : Yes
    Forced : No


    Скриншоты для ознакомления




    Соль. Ария (14.03.16) WEBRip [H.264/720p-LQ]
    загрузка...
    Рейтинг →
     (голосов: 1, оценка 5/5, голосовать можно 1 раз )

    Другие торренты по теме:

  • Без обмана. Соль земли русской (2014.10.20) SATRip скачать через торрент бесплатно
  • Борис Гребенщиков - Соль (2014) [MP3|320 кб / с]<Rock>
  • Борис Гребенщиков - Соль (2014) [AAC|WEB-DL|256 кб / с]<Rock> скачать через торрент бесплатно
  • Как оно есть. Соль (2014.11.25) SATRip
  • Научное расследование Сергея Малозёмова: Соль и сахар. Смерть по вкусу (2014.12.20) SATRip скачать через торрент бесплатно
  • Нераскрытые тайны. Чем соль опасна для человека (2014) SATRip
  • Соль Земли / The Salt of the Earth (2014) HDRip скачать через торрент бесплатно
  • Соль (01.11.2015) SATRip скачать через торрент бесплатно


    • Комментарии (0):

      Информация

      Информация

        Посетители, находящиеся в группе Гости, не могут оставлять комментарии в данной новости.

        ↓ Меню




        ↓ Опрос

        Вы добавили сайт в закладки?
        Да
        Нет


        Top 10 за месяц (Передачи)

        Алексей Широков, Александр Шапочкин | Попаданец 2.0 (2017) [FB2]

        (скачиваний: 9)
        Фигурное катание. Гран-при 2017-2018. 3-й Этап. Кубок Китая 2017. Пекин (Китай). 2 День (04.11.2017) HDTV [H.264 / 1080i-LQ]

        (скачиваний: 8)
        Михаил Задорнов. Лучшее - сборник лучших эстрадных номеров Михаила Задорнова за 30 лет (1984-2014) WEBRip скачать через торрент бесплатно

        (скачиваний: 8)
        Журнал | Всему свету по совету №1 (228) (январь 2017) [PDF]

        (скачиваний: 6)
        Орел и решка. Перезагрузка (2017.11.07) WEB-DL [H.264 / 720p-LQ] (сезон 14: Ибица. Испания)

        (скачиваний: 6)
        Святитель Феофан Затворник | Собрание сочинений [69 Томов] (2008) [FB2]

        (скачиваний: 5)
        Трэвис Хэйли. Адаптивный автомат Калашникова / Travis Haley: Adaptive Kalash (2011) WEBRip [720p-LQ] скачать через торрент бесплатно

        (скачиваний: 5)
        Горная бригада (2014) HDTVRip [720p-LQ] [Серии: 1-12 из 12] скачать через торрент бесплатно

        (скачиваний: 4)
        Comedy Club (2010-2014) SATRip / WEB-DLRip [Выпуск: 201-363] скачать через торрент бесплатно

        (скачиваний: 4)
        Айрэн По, Джули По | Нумерология, как профессия. Мы из матрицы. Книга 1 (2016) [DJVU]

        (скачиваний: 4)