.
Авторизация | Регистрация
Хочешь лучшие торренты? Добавь свой email!
Добавить

Торрент скачать бесплатно

» » Трискелион. Природа Бретани / Triskell. Bretagne Sauvage (2016) HDTVRip [H.264 / 720p-LQ] торрент скачать бесплатно




    Трискелион. Природа Бретани / Triskell. Bretagne Sauvage (2016) HDTVRip [H.264 / 720p-LQ] торрент скачать бесплатно

    Опубликовал: Админ | Дата: 13-05-2017, 05:00 | Просмотров: 0

    Производство: Франция, Artisans du Film, FT
    Жанр: Документальный, фауна, флора
    Режиссер: Лукас Аллейн, Базиле Джербод Ромен Генард Мэтью Мау

    Описание

    В северо-западной Франции лежит Бретань, огромный скалистый полуостров, который бросает вызов Атлантике в течение миллионов лет. Это земля контрастов славится своими многочисленными сокровищами и захватывающими дух пейзажами. Волшебство природного наследия раскрывается через череду впечатляющих кадров, каждый вид продолжает писать историю земли с живой душой и уникальным характером.
    Релиз от: рипskorpionN
    Продолжительность: 00: 52: 06
    Качество видео: HDTVRip
    Перевод: Одноголосый закадровый, профессиональный
    Субтитры: Отсутствуют
    Видео: AVC/H.264, 1280x720, ~5000 Kbps
    Аудио: AC3, 2 ch, 192 kbps

    Общее
    Уникальный идентификатор : 201930560910145652748764537086115986325 (0x97EA6951244EBF2380B790B6D43E3B95)
    Полное имя : F: КИНОTriskell_Bretagne Sauvage_720p.mkv
    Формат : Matroska
    Версия формата : Version 4/Version 2
    Размер файла : 1, 88 Гбайт
    Продолжительность : 52 м. 5 с.
    Режим общего битрейта : Переменный
    Общий поток : 5173 Кбит/сек
    Дата кодирования : UTC 2017-05-12 04: 21: 53
    Программа кодирования : mkvmerge v6.9.1 (\'Blue Panther\') 64bit built on Apr 18 2014 18: 23: 38
    Библиотека кодирования : libebml v1.3.0 + libmatroska v1.4.1
    Видео
    Идентификатор : 1
    Формат : AVC
    Формат/Информация : Advanced Video Codec
    Профиль формата : High@L4
    Параметр CABAC формата : Да
    Параметр ReFrames формата : 3 кадра
    Идентификатор кодека : V_MPEG4/ISO/AVC
    Продолжительность : 52 м. Самое интересное в это истории, что об этом Кличко ничего не знал. 6 с.
    Вид битрейта : Переменный
    Битрейт : 5000 Кбит/сек
    Максимальный битрейт : 8000 Кбит/сек
    Ширина : 1280 пикселей
    Высота : 720 пикселей
    Соотношение сторон : 16: 9
    Режим частоты кадров : Постоянный
    Частота кадров : 25, 000 кадров/сек
    Стандарт вещания : NTSC
    Цветовое пространство : YUV
    Субдискретизация насыщенности : 4: 2: 0
    Битовая глубина : 8 бит
    Тип развёртки : Прогрессивная
    Бит/(Пиксели*Кадры) : 0.217
    Размер потока : 1, 78 Гбайт (94%)
    Библиотека кодирования : x264 core 114
    Default : Да
    Forced : Нет
    Цветовой диапазон : Limited
    Основные цвета : BT.709
    Характеристики трансфера : BT.709
    Коэффициенты матрицы : BT.709
    Аудио
    Идентификатор : 2
    Формат : AC-3
    Формат/Информация : Audio Coding 3
    Параметр Endianness формата : Big
    Идентификатор кодека : A_AC3
    Продолжительность : 52 м. 5 с.
    Вид битрейта : Постоянный
    Битрейт : 192 Кбит/сек
    Каналы : 2 канала
    Расположение каналов : Front: L R
    Частота : 48, 0 КГц
    Частота кадров : 31, 250 кадров/сек (1536 spf)
    Битовая глубина : 16 бит
    Метод сжатия : С потерями
    Размер потока : 71, 5 Мбайт (4%)
    ServiceKind/String : Complete Main
    Default : Да
    Forced : Нет


    Скриншоты для ознакомления




    Трискелион. Природа Бретани/Triskell. Bretagne Sauvage (2016) HDTVRip [H.264/720p-LQ]
    загрузка...
    Рейтинг →
     (голосов: 1, оценка 3/5, голосовать можно 1 раз )

    Другие торренты по теме:

  • Трискелион. Природа Бретани / Triskell. Bretagne Sauvage (2016) HDTVRip [H.264 / 1080i-LQ]


    • Комментарии (0):

      Информация

      Информация

        Посетители, находящиеся в группе Гости, не могут оставлять комментарии в данной новости.

        ↓ Меню




        ↓ Опрос

        Вы добавили сайт в закладки?
        Да
        Нет


        Top 10 за месяц (Передачи)

        Алексей Широков, Александр Шапочкин | Попаданец 2.0 (2017) [FB2]

        (скачиваний: 9)
        Михаил Задорнов. Лучшее - сборник лучших эстрадных номеров Михаила Задорнова за 30 лет (1984-2014) WEBRip скачать через торрент бесплатно

        (скачиваний: 8)
        Фигурное катание. Гран-при 2017-2018. 3-й Этап. Кубок Китая 2017. Пекин (Китай). 2 День (04.11.2017) HDTV [H.264 / 1080i-LQ]

        (скачиваний: 7)
        Журнал | Всему свету по совету №1 (228) (январь 2017) [PDF]

        (скачиваний: 6)
        Орел и решка. Перезагрузка (2017.11.07) WEB-DL [H.264 / 720p-LQ] (сезон 14: Ибица. Испания)

        (скачиваний: 6)
        Святитель Феофан Затворник | Собрание сочинений [69 Томов] (2008) [FB2]

        (скачиваний: 5)
        Трэвис Хэйли. Адаптивный автомат Калашникова / Travis Haley: Adaptive Kalash (2011) WEBRip [720p-LQ] скачать через торрент бесплатно

        (скачиваний: 5)
        Горная бригада (2014) HDTVRip [720p-LQ] [Серии: 1-12 из 12] скачать через торрент бесплатно

        (скачиваний: 4)
        Журнал | Рецепты на бис. Спецвыпуск №1 (19) (2017) [PDF]

        (скачиваний: 4)
        Николай Ягодкин | Технология постановки навыков (2013) PCRec [H.264]

        (скачиваний: 4)