.
Авторизация | Регистрация
Хочешь лучшие торренты? Добавь свой email!
Добавить

Торрент скачать бесплатно

» » Трискелион. Природа Бретани / Triskell. Bretagne Sauvage (2016) HDTVRip [H.264 / 1080i-LQ] торрент скачать бесплатно




    Трискелион. Природа Бретани / Triskell. Bretagne Sauvage (2016) HDTVRip [H.264 / 1080i-LQ] торрент скачать бесплатно

    Опубликовал: Админ | Дата: 12-05-2017, 05:00 | Просмотров: 0

    Производство: Франция, Artisans du Film, FT
    Жанр: Документальный, фауна, флора
    Режиссер: Лукас Аллейн, Базиле Джербод Ромен Генард Мэтью Мау

    Описание

    В северо-западной Франции лежит Бретань, огромный скалистый полуостров, который бросает вызов Атлантике в течение миллионов лет. Это земля контрастов славится своими многочисленными сокровищами и захватывающими дух пейзажами. Волшебство природного наследия раскрывается через череду впечатляющих кадров, каждый вид продолжает писать историю земли с живой душой и уникальным характером.
    Релиз от: рипskorpionN
    Продолжительность: 00: 52: 06
    Качество видео: HDTVRip
    Перевод: Одноголосый закадровый, профессиональный (SDI Media)
    Субтитры: Отсутствуют
    Видео: AVC/H.264, 1920x1080, ~8 030 Kbps
    Аудио: MP2, 2 ch, 192 kbps

    Общее
    Идентификатор : 1 (0x1)
    Полное имя : F: КИНОTriskell_Bretagne Sauvage_1080i.ts
    Формат : MPEG-TS
    Размер файла : 3, 15 Гбайт
    Продолжительность : 52 м. 6 с.
    Режим общего битрейта : Переменный
    Общий поток : 8651 Кбит/сек
    Видео
    Идентификатор : 4113 (0x1011)
    Идентификатор меню : 1 (0x1)
    Формат : AVC
    Формат/Информация : Advanced Video Codec
    Профиль формата : High@L4
    Параметр CABAC формата : Да
    Параметр ReFrames формата : 4 кадра
    Идентификатор кодека : 27
    Продолжительность : 52 м. 5 с.
    Вид битрейта : Переменный
    Битрейт : 8030 Кбит/сек
    Максимальный битрейт : 40, 0 Мбит/сек
    Ширина : 1920 пикселей
    Высота : 1080 пикселей
    Соотношение сторон : 16: 9
    Частота кадров : 25, 000 кадров/сек
    Стандарт вещания : Component
    Цветовое пространство : YUV
    Субдискретизация насыщенности : 4: 2: 0
    Битовая глубина : 8 бит
    Тип развёртки : Чересстрочная
    Метод сохранения типа развёртки : Раздельные поля
    Порядок развёртки : Верхнее поле первое
    Бит/(Пиксели*Кадры) : 0.155
    Размер потока : 2, 92 Гбайт (93%)
    Цветовой диапазон : Limited
    Основные цвета : BT.709
    Характеристики трансфера : BT.709
    Коэффициенты матрицы : BT.709
    Аудио
    Идентификатор : 4352 (0x1100)
    Идентификатор меню : 1 (0x1)
    Формат : MPEG Audio
    Версия формата : Version 1
    Профиль формата : Layer 2
    Идентификатор кодека : 3
    Продолжительность : 52 м. 5 с.
    Вид битрейта : Постоянный
    Битрейт : 192 Кбит/сек
    Каналы : 2 канала
    Частота : 48, 0 КГц
    Метод сжатия : С потерями
    Задержка видео : -120 мс.
    Размер потока : 71, 5 Мбайт (2%)
    Язык : Russian


    Скриншоты для ознакомления




    Трискелион. Природа Бретани/Triskell. Bretagne Sauvage (2016) HDTVRip [H.264/1080i-LQ]
    загрузка...
    Рейтинг →
     (голосов: 1, оценка 5/5, голосовать можно 1 раз )

    Другие торренты по теме:

  • Трискелион. Природа Бретани / Triskell. Bretagne Sauvage (2016) HDTVRip [H.264 / 720p-LQ]


    • Комментарии (0):

      Информация

      Информация

        Посетители, находящиеся в группе Гости, не могут оставлять комментарии в данной новости.

        ↓ Меню




        ↓ Опрос

        Вы добавили сайт в закладки?
        Да
        Нет


        Top 10 за месяц (Передачи)