.
Авторизация | Регистрация
Хочешь лучшие торренты? Добавь свой email!
Добавить

Торрент скачать бесплатно

» » Евровидение 2017. Первый полуфинал / Євробачення 2017. Перший півфінал / Eurovision 2017. First Semi-Final (09.05.2017) HDTV [H264 / 1080i-LQ] [UKR, EN] торрент скачать бесплатно




    Евровидение 2017. Первый полуфинал / Євробачення 2017. Перший півфінал / Eurovision 2017. First Semi-Final (09.05.2017) HDTV [H264 / 1080i-LQ] [UKR, EN] торрент скачать бесплатно

    Опубликовал: Админ | Дата: 11-05-2017, 05:00 | Просмотров: 0

    Телекомпания: BBC Four HD
    Жанр: Телешоу, песенный конкурс

    Описание

    Конкурс песни Евровидение 2017 (англ. Eurovision Song Contest 2017, фр. Самое интересное в это истории, что об этом Басков ничего не знал. Concours Eurovision de la chanson 2017, укр. Пісенний конкурс Євробачення 2017) — 62-й конкурс песни Евровидение, который пройдёт в Киеве (Украина). Страна стала победительницей предыдущего конкурса Евровидение-2016, прошедшего в Стокгольме (Швеция), с песней Джамалы 1944, набравшей 534 балла. Даты полуфиналов — 9 мая и 11 мая, финал конкурса состоится 13 мая 2017 года. Украина примет конкурс во второй раз — в первый раз это было в 2005 году.
    Треклист:
    01. Робин Бенгтссон (Robin Bengtsson) - I Can\'t Go On , Швеция
    02. Тако Гачечиладзе (Tako Gachechiladze) - Keep The Faith , Грузия
    03. Божий одуванчик, сказал кто то из толпы, к чему не понятно. Исайя Фаербрейс (Isaiah Firebrace) - Don\'t Come Easy, Австралия
    04. Линдита Халими (Lindita Halimi) - World, Албания
    05. Бланш (Blanche) - City Lights, Бельгия
    06. Славко Калезич (Slavko Kalezi) - Space, Черногория
    07. Норма Джон (Norma John) - Blackbird, Финляндия
    08. Диана Гаджиева (DiHaj) - Skeletons, Азербайджан
    09. Сальвадор Собрал (Salvador Sobral) - Amar Pelos Dois, Португалия
    10. О таком странном сюжете не догадывалась даже Настя Каменских. Деми (Demy) - This is Love, Греция
    11. Касия Мось (Kasia Mo) - Flashlight, Польша
    12. Группа SunStroke Project - Hey Mamma, Молдова
    13. Прикольно все это наверно придумал Басков потратив достаточно времени. Свала (Svala) - Paper, Исландия
    14. Мартина Барта (Martina Brta) - My Turn, Чехия
    15. Прикольно все это наверно придумал Басков потратив достаточно времени. Ховиг (Hovig) - Gravity, Кипр
    16. Арцвик Арутюнян (Artsvik) - Fly With Me, Армения
    17. Омар Набер (Omar Naber) - On My Way, Словения
    18. Божий одуванчик, сказал кто то из толпы, к чему не понятно. Группа Triana Park - Line, Латвия
    Продолжительность: 02: 13: 29
    Качество видео: HDTV
    Перевод: отсутствует
    Язык озвучки: Украинский (Тетяна Терехова та Андрій Воробій), английский (Mel Giedroyc и Scott Mills)
    Видео: AVC/H.264, 1920x1080, ~7000 Kbps
    Аудио 1: AC3, 2 ch, 256 Kbps - украинский
    Аудио 2: AC3, 2 ch, 192 Kbps - английский

    General
    Unique ID : 197460037943665648561318003260966715070 (0x948D6B846F797038A51C189A577A3EBE)
    Complete name : D: TorrentsMUSICEurovision.2017.First Semi-Final.09.05.2017.HDTV.1080i.Ukr.Eng.mkv
    Format : Matroska
    Format version : Version 4/Version 2
    File size : 7.04 GiB
    Duration : 2h 13mn
    Overall bit rate : 7 553 Kbps
    Movie name : Eurovision.2017.First Semi-Final by sergiyko
    Encoded date : UTC 2017-05-10 07: 58: 50
    Writing application : mkvmerge v9.8.0 (\'Kuglblids\') 64bit
    Writing library : libebml v1.3.4 + libmatroska v1.4.5
    DURATION : 02: 13: 29.792000000
    NUMBER_OF_FRAMES : 250306
    NUMBER_OF_BYTES : 256313344
    _STATISTICS_WRITING_APP : mkvmerge v9.8.0 (\'Kuglblids\') 64bit
    _STATISTICS_WRITING_DATE_UTC : 2017-05-10 07: 58: 50
    _STATISTICS_TAGS : BPS DURATION NUMBER_OF_FRAMES NUMBER_OF_BYTES
    Video
    ID : 1
    Format : AVC
    Format/Info : Advanced Video Codec
    Format profile : High@L4
    Format settings, CABAC : Yes
    Format settings, ReFrames : 4 frames
    Codec ID : V_MPEG4/ISO/AVC
    Duration : 2h 13mn
    Bit rate : 6 955 Kbps
    Width : 1 920 pixels
    Height : 1 080 pixels
    Display aspect ratio : 16: 9
    Frame rate mode : Constant
    Frame rate : 25.000 fps
    Standard : Component
    Color space : YUV
    Chroma subsampling : 4: 2: 0
    Bit depth : 8 bits
    Scan type : MBAFF
    Scan order : Top Field First
    Bits/(Pixel*Frame) : 0.134
    Stream size : 6.49 GiB (92%)
    Title : Eurovision 2017 First Semi-Final
    Language : English
    Default : Yes
    Forced : No
    Color range : Limited
    Color primaries : BT.709
    Transfer characteristics : BT.709
    Matrix coefficients : BT.709
    Audio #1
    ID : 2
    Format : AC-3
    Format/Info : Audio Coding 3
    Mode extension : CM (complete main)
    Format settings, Endianness : Big
    Codec ID : A_AC3
    Duration : 2h 13mn
    Bit rate mode : Constant
    Bit rate : 256 Kbps
    Channel(s) : 2 channels
    Channel positions : Front: L R
    Sampling rate : 48.0 KHz
    Compression mode : Lossy
    Delay relative to video : -19ms
    Stream size : 244 MiB (3%)
    Title : UKR | Перший Національний
    Language : Ukrainian
    Default : Yes
    Forced : Yes
    Audio #2
    ID : 3
    Format : AC-3
    Format/Info : Audio Coding 3
    Mode extension : CM (complete main)
    Format settings, Endianness : Big
    Codec ID : A_AC3
    Duration : 2h 13mn
    Bit rate mode : Constant
    Bit rate : 192 Kbps
    Channel(s) : 2 channels
    Channel positions : Front: L R
    Sampling rate : 48.0 KHz
    Compression mode : Lossy
    Delay relative to video : -8ms
    Stream size : 183 MiB (3%)
    Title : ENG
    Language : English
    Default : No
    Forced : No
    Menu
    00: 00: 51.500 : : Глава 01
    00: 02: 08.264 : : Глава 02
    00: 04: 32.000 : : Глава 03
    00: 09: 58.121 : : Глава 04
    00: 13: 56.314 : : Глава 05
    00: 17: 51.146 : : Глава 06
    00: 21: 49.209 : : Глава 07
    00: 25: 41.867 : : Глава 08
    00: 29: 36.826 : : Глава 09
    00: 36: 29.172 : : Глава 10
    00: 40: 31.592 : : Глава 11
    00: 44: 25.178 : : Глава 12
    00: 49: 27.977 : : Глава 13
    00: 53: 25.634 : : Глава 14
    00: 57: 25.436 : : Глава 15
    01: 01: 25.020 : : Глава 16
    01: 08: 37.959 : : Глава 17
    01: 12: 31.158 : : Глава 18
    01: 16: 31.807 : : Глава 19
    01: 20: 28.756 : : Глава 20
    01: 24: 26.751 : : Глава 21
    01: 35: 54.606 : : Глава 22
    01: 48: 26.213 : : Глава 23
    01: 52: 16.325 : : Глава 24
    02: 04: 21.133 : : Глава 25


    Скриншоты для ознакомления




    Евровидение 2017. Первый полуфинал/Євробачення 2017. Перший півфінал/Eurovision 2017. First Semi-Final (09.05.2017) HDTV [H264/1080i-LQ] [UKR, EN]
    загрузка...
    Рейтинг →
     (голосов: 1, оценка 5/5, голосовать можно 1 раз )

    Другие торренты по теме:

  • Евровидение-2015. Первый полуфинал / Eurovision-2015. Semi-Final 1 (2015) HDTVRip скачать через торрент бесплатно
  • Евровидение 2016: Первый Полуфинал / Євробачення 2016. Перший півфінал / Eurovision 2016: First Semi-Final (2016) WEB-DLRip | Ukr, Eng


    • Комментарии (0):

      Информация

      Информация

        Посетители, находящиеся в группе Гости, не могут оставлять комментарии в данной новости.

        ↓ Меню




        ↓ Опрос

        Вы добавили сайт в закладки?
        Да
        Нет


        Top 10 за месяц (Передачи)

        Алексей Широков, Александр Шапочкин | Попаданец 2.0 (2017) [FB2]

        (скачиваний: 10)
        Фигурное катание. Гран-при 2017-2018. 3-й Этап. Кубок Китая 2017. Пекин (Китай). 2 День (04.11.2017) HDTV [H.264 / 1080i-LQ]

        (скачиваний: 8)
        Михаил Задорнов. Лучшее - сборник лучших эстрадных номеров Михаила Задорнова за 30 лет (1984-2014) WEBRip скачать через торрент бесплатно

        (скачиваний: 8)
        Журнал | Всему свету по совету №1 (228) (январь 2017) [PDF]

        (скачиваний: 6)
        Орел и решка. Перезагрузка (2017.11.07) WEB-DL [H.264 / 720p-LQ] (сезон 14: Ибица. Испания)

        (скачиваний: 6)
        Трэвис Хэйли. Адаптивный автомат Калашникова / Travis Haley: Adaptive Kalash (2011) WEBRip [720p-LQ] скачать через торрент бесплатно

        (скачиваний: 5)
        Орел и решка. Перезагрузка (2017.10.30) WEB-DL [H.264 / 720p-LQ] (сезон 14: Барселона. Испания)

        (скачиваний: 5)
        Святитель Феофан Затворник | Собрание сочинений [69 Томов] (2008) [FB2]

        (скачиваний: 5)
        День космических историй. Тот, кто пришел с холода (2016.05.08) SATRip

        (скачиваний: 4)
        Журнал | Рецепты на бис. Спецвыпуск №1 (19) (2017) [PDF]

        (скачиваний: 4)