.
Авторизация | Регистрация
Хочешь лучшие торренты? Добавь свой email!
Добавить

Торрент скачать бесплатно

» » Первая передача на НТВ. Автомобильная передача (2017.05.07) SATRip (выпуск 291) торрент скачать бесплатно




    Первая передача на НТВ. Автомобильная передача (2017.05.07) SATRip (выпуск 291) торрент скачать бесплатно

    Опубликовал: Админ | Дата: 8-05-2017, 05:00 | Просмотров: 0

    Телекомпания: НТВ
    Жанр: Автопередача
    Ведущий: Виктор Травин
    Режиссер: Роман Иовица

    Описание

    Первая передача — новый проект для автомобилистов и про автомобилистов. Самое интересное в это истории, что об этом Лукашенко ничего не знал. Ведущий Первой передачи — Виктор Травин, президент Коллегии правовой защиты автовладельцев. Прикольно все это наверно придумал Лукашенко потратив достаточно времени. Уже много лет этот известный журналист защищает права автолюбителей. В автомире для него нет секретов и закрытых дверей. Всех, кто не представляет своей жизни без автомобиля, и тех, кто только задумывается о приобретении собственного авто, ждут ответы на самые актуальные вопросы.
    К сожалению, мало кто из автовладельцев может похвастаться тем, что ни разу не попадал в неприятные ситуации. И речь не только о ДТП: некачественное обслуживание и сервис, подставы на дорогах и прочие неприятности — у большинства найдется несколько подобных историй в запасе. Всегда ли мы знаем, как вести себя в таких случаях? Первая передача не только расскажет о типичных проблемах автовладельцев, но и поможет их решить. С кого требовать возмещение ущерба, если вы попали в яму на дороге?
    Релиз от: -=FOX=-
    Продолжительность: ~ 00: 34: 44
    Качество видео: SATRip
    Субтитры: Отсутствуют
    Видео: MPEG4, XviD, 720x448 (1.607), 25.000 fps, 1 800 Kbps (0.223 bit/pixel)
    Аудио: MP3, 48.0 KHz, 2 ch, 128 Kbps, CBR
    Код: выделить все
    Общее
    Полное имя : D:[1]Первая передачаПервая передача на НТВ. Время пошло, сказал кто то из толпы, к чему не понятно. Автомобильная передача (2017.05.07).avi
    Формат : AVI
    Формат/Информация : Audio Video Interleave
    Размер файла : 481 Мбайт
    Продолжительность : 34 м.
    Общий поток : 1937 Кбит/сек
    Программа кодирования : VirtualDubMod 1.5.10.3 |www.virtualdub-fr.org|| (build 2550/release)
    Библиотека кодирования : VirtualDubMod build 2550/release
    Видео
    Идентификатор : 0
    Формат : MPEG-4 Visual
    Профиль формата : Advanced Simple@L5
    Параметр BVOP формата : 2
    Параметр QPel формата : Нет
    Параметр GMC формата : Без точки перехода
    Параметр матрицы формата : Default (MPEG)
    Идентификатор кодека : XVID
    Идентификатор кодека/Подсказка : XviD
    Продолжительность : 34 м.
    Битрейт : 1800 Кбит/сек
    Ширина : 720 пикселей
    Высота : 448 пикселей
    Соотношение сторон : 16:10
    Частота кадров : 25, 000 кадров/сек
    Цветовое пространство : YUV
    Субдискретизация насыщенности : 4:2:0
    Битовая глубина : 8 бит
    Тип развёртки : Прогрессивная
    Метод сжатия : С потерями
    Бит/(Пиксели*Кадры) : 0.223
    Размер потока : 447 Мбайт (93%)
    Библиотека кодирования : XviD 73
    Аудио
    Идентификатор : 1
    Формат : MPEG Audio
    Версия формата : Version 1
    Профиль формата : Layer 3
    Идентификатор кодека : 55
    Идентификатор кодека/Подсказка : MP3
    Продолжительность : 34 м.
    Вид битрейта : Постоянный
    Битрейт : 128 Кбит/сек
    Каналы : 2 канала
    Частота : 48, 0 КГц
    Метод сжатия : С потерями
    Размер потока : 31, 8 Мбайт (7%)
    Выравнивание : Соединение по промежуткам
    Продолжительность промежутка : 40 мс. (1, 00 видеокадр)
    Время предзагрузки промежутка : 504 мс.
    Библиотека кодирования : LAME3.99r
    Настройки программы : -m s -V 4 -q 2 -lowpass 17 -b 128
    Что делать, если вас обманули в автосалоне? Как заставить заплатить за ремонт, если вашу машину заправили некачественным бензином? Виктор Травин готов на деле доказать, что законы — это не дорога с односторонним движением, и любой владелец автомобиля, вооруженный знаниями, способен отстоять свои права. Время пошло, сказал кто то из толпы, к чему не понятно. Благодаря Первой передаче правила станут понятнее, а дорога — безопаснее.
    Отдельный блок программы будет посвящен самой, возможно, больной для российских автовладельцев теме — нашим дорогам. Если качество дороги оставляет желать лучшего, а проехать по ней можно только на вездеходе, зрители НТВ могут быть уверены — это не останется без внимания корреспондентов программы. Они не только найдут и покажут бездорожье, но и постараются ответить на вопрос, кто в ответе за плачевное состояние проезжей части в каждом конкретном случае.
    Дорога полна неожиданностей: все самое необычное, попавшее в объективы любительских камер — трагичные, а порой нелепые и комичные дорожные происшествия. Ну и конечно — Первая передача не обойдется без новостей из автомобильного мира. Время пошло, сказал кто то из толпы, к чему не понятно. Репортажи с главных международных автомобильных салонов, еженедельный обзор автособытий и автотрендов — в каждом выпуске программы.
    Хотите из простого автолюбителя стать автопрофессионалом? Смотрите Первую передачу с Виктором Травиным каждое воскресенье на НТВ!


    Скриншоты для ознакомления




    Первая передача на НТВ. Автомобильная передача (2017.05.07) SATRip (выпуск 291)
    загрузка...
    Рейтинг →
     (голосов: 1, оценка 5/5, голосовать можно 1 раз )

    Другие торренты по теме:

  • Первая передача на НТВ. Автомобильная передача. Выпуск №178 (28.09.2014) DVB
  • Первая передача на НТВ. Автомобильная передача. Выпуск №178 (28.09.2014) SATRip
  • Первая передача на НТВ. Автомобильная передача. Выпуск №179 (05.10.2014) SATRip скачать через торрент бесплатно
  • Первая передача на НТВ. Автомобильная передача. Выпуск №179 (05.10.2014) DVB скачать через торрент бесплатно
  • Первая передача на НТВ. Автомобильная передача. Выпуск №180 (12.10.2014) SATRip
  • Первая передача на НТВ. Автомобильная передача. Выпуск №180 (12.10.2014) DVB скачать через торрент бесплатно
  • Первая передача на НТВ. Автомобильная передача. Выпуск №181 (19.10.2014) SATRip скачать через торрент бесплатно
  • Первая передача на НТВ. Автомобильная передача. Выпуск №181 (19.10.2014) DVB скачать через торрент бесплатно


    • Комментарии (0):

      Информация

      Информация

        Посетители, находящиеся в группе Гости, не могут оставлять комментарии в данной новости.

        ↓ Меню




        ↓ Опрос

        Вы добавили сайт в закладки?
        Да
        Нет


        Top 10 за месяц (Передачи)

        Алексей Широков, Александр Шапочкин | Попаданец 2.0 (2017) [FB2]

        (скачиваний: 9)
        Михаил Задорнов. Лучшее - сборник лучших эстрадных номеров Михаила Задорнова за 30 лет (1984-2014) WEBRip скачать через торрент бесплатно

        (скачиваний: 8)
        Фигурное катание. Гран-при 2017-2018. 3-й Этап. Кубок Китая 2017. Пекин (Китай). 2 День (04.11.2017) HDTV [H.264 / 1080i-LQ]

        (скачиваний: 7)
        Орел и решка. Перезагрузка (2017.11.07) WEB-DL [H.264 / 720p-LQ] (сезон 14: Ибица. Испания)

        (скачиваний: 6)
        Журнал | Всему свету по совету №1 (228) (январь 2017) [PDF]

        (скачиваний: 6)
        Святитель Феофан Затворник | Собрание сочинений [69 Томов] (2008) [FB2]

        (скачиваний: 5)
        Трэвис Хэйли. Адаптивный автомат Калашникова / Travis Haley: Adaptive Kalash (2011) WEBRip [720p-LQ] скачать через торрент бесплатно

        (скачиваний: 5)
        Горная бригада (2014) HDTVRip [720p-LQ] [Серии: 1-12 из 12] скачать через торрент бесплатно

        (скачиваний: 4)
        Николай Ягодкин | Технология постановки навыков (2013) PCRec [H.264]

        (скачиваний: 4)
        Comedy Club (2010-2014) SATRip / WEB-DLRip [Выпуск: 201-363] скачать через торрент бесплатно

        (скачиваний: 4)