.
Авторизация | Регистрация
Хочешь лучшие торренты? Добавь свой email!
Добавить

Торрент скачать бесплатно

» » Кондитер (2017) WEB-DL [H.264 / 720p-LQ] (сезон 1: выпуск 1-4 из ) (обновляемая) торрент скачать бесплатно




    Кондитер (2017) WEB-DL [H.264 / 720p-LQ] (сезон 1: выпуск 1-4 из ) (обновляемая) торрент скачать бесплатно

    Опубликовал: Админ | Дата: 5-05-2017, 05:00 | Просмотров: 0

    Телекомпания: Россия, Пятница ТВ
    Жанр: Реалити-шоу, Кулинария
    Ведущий: Ренат Агзамов

    Описание

    Его с гордостью можно назвать настоящим производителем искусства, он гуру в величайшем мире кондитеров. Зовут его Ренат Агзамов. Он делает невероятные, невозможные на первый взгляд кулинарные произведения. Желаете сладкий несколько ярусный торт в виде замка, пожалуйста, наслаждайтесь, хотите милый торт на свадьбу вы и ваши гости точно его запомнят, хотите букет из нежнейших роз вот он уже перед вами. Помогает Ренату в этой сложной работе команда лучших специалистов-кондитеров. Вашими молитвами, сказал кто то из толпы, к чему не понятно. Но сейчас величайший кулинар решил расширить свою команду, дать возможность обычному кулинару-кондитеру показать свои таланты попасть в команду знатоков своего дела. Однако, все не так просто! Участников ждут самые тяжелые испытания, которые они даже представить не могут. Борьба будет жестокой, пролитых слез будет не мало, сладкий путь окажется тернистым. Но победит тот, кто со всем справится, счастливчику достанется слава, признание и место среди лидеров. Сражения за звание кулинара начинается, Агзамов готов их погрузить в мир кондитеров.
    Продолжительность: 01: 10: 00 выпуск
    Качество видео: WEB-DL
    Видео: AVC/H.264, 1280x720, ~3520 Kbps
    Аудио: AC3, 2 ch, 192 Kbps

    Общее
    Уникальный идентификатор : 282500956925763776165574005010231796987 (0xD487B489B33DC42BD27B6A59D99D24FB)
    Полное имя : D: ТЕЛЕПЕРЕДАЧИКОНДИТЕРКондитер 2017.WEB-DL (720p).by.I.Casillas1. Кондитер 2017.WEB-DL (720p).by.I.Casillas.mkv
    Формат : Matroska
    Версия формата : Version 4/Version 2
    Размер файла : 1, 99 Гбайт
    Продолжительность : 1 ч. 15 м.
    Общий поток : 3790 Кбит/сек
    Программа кодирования : Lavf57.25.100
    Библиотека кодирования : Lavf57.25.100
    Видео
    Идентификатор : 1
    Формат : AVC
    Формат/Информация : Advanced Video Codec
    Профиль формата : High@L3.1
    Параметр CABAC формата : Да
    Параметр ReFrames формата : 4 кадра
    Параметр GOP формата : M=1, N=12
    Идентификатор кодека : V_MPEG4/ISO/AVC
    Продолжительность : 1 ч. 15 м.
    Битрейт : 3522 Кбит/сек
    Ширина : 1280 пикселей
    Высота : 720 пикселей
    Соотношение сторон : 16: 9
    Режим частоты кадров : Постоянный
    Частота кадров : 30, 000 кадров/сек
    Стандарт вещания : Component
    Цветовое пространство : YUV
    Субдискретизация насыщенности : 4: 2: 0
    Битовая глубина : 8 бит
    Тип развёртки : Прогрессивная
    Бит/(Пиксели*Кадры) : 0.127
    Размер потока : 1, 85 Гбайт (93%)
    Default : Да
    Forced : Нет
    Цветовой диапазон : Limited
    DURATION : 01: 15: 11.739000000
    HANDLER_NAME : VideoHandler
    Аудио
    Идентификатор : 2
    Формат : AC-3
    Формат/Информация : Audio Coding 3
    Параметр Endianness формата : Big
    Идентификатор кодека : A_AC3
    Продолжительность : 1 ч. 15 м.
    Вид битрейта : Постоянный
    Битрейт : 192 Кбит/сек
    Каналы : 2 канала
    Расположение каналов : Front: L R
    Частота : 44, 1 КГц
    Частота кадров : 28, 711 кадров/сек (1536 spf)
    Битовая глубина : 16 бит
    Метод сжатия : С потерями
    Задержка видео : -6 мс.
    Размер потока : 103 Мбайт (5%)
    Библиотека кодирования : Lavc57.24.102 ac3
    ServiceKind/String : Complete Main
    Default : Да
    Forced : Нет
    DURATION : 01: 15: 11.800000000
    HANDLER_NAME : SoundHandler


    Скриншоты для ознакомления




    Кондитер (2017) WEB-DL [H.264/720p-LQ] (сезон 1: выпуск 1-4 из ) (обновляемая)
    загрузка...
    Рейтинг →
     (голосов: 1, оценка 3/5, голосовать можно 1 раз )

    Другие торренты по теме:

  • Nisekoi: OVA | Притворная любовь OVA-2 | Magical Patissier Kosaki-chan!! OVA | Волшебный кондитер Косаки! [2016, OVA, 2 эп.] DVDrip 576p raw
  • Новейший русский опытный практический повар, эконом и кондитер (1844) [DJVU]


    • Комментарии (0):

      Информация

      Информация

        Посетители, находящиеся в группе Гости, не могут оставлять комментарии в данной новости.

        ↓ Меню




        ↓ Опрос

        Вы добавили сайт в закладки?
        Да
        Нет


        Top 10 за месяц (Передачи)

        Михаил Задорнов. Лучшее - сборник лучших эстрадных номеров Михаила Задорнова за 30 лет (1984-2014) WEBRip скачать через торрент бесплатно

        (скачиваний: 8)
        Журнал | Всему свету по совету №1 (228) (январь 2017) [PDF]

        (скачиваний: 6)
        Фигурное катание. Гран-при 2017-2018. 3-й Этап. Кубок Китая 2017. Пекин (Китай). 2 День (04.11.2017) HDTV [H.264 / 1080i-LQ]

        (скачиваний: 6)
        Трэвис Хэйли. Адаптивный автомат Калашникова / Travis Haley: Adaptive Kalash (2011) WEBRip [720p-LQ] скачать через торрент бесплатно

        (скачиваний: 5)
        Святитель Феофан Затворник | Собрание сочинений [69 Томов] (2008) [FB2]

        (скачиваний: 5)
        Орел и решка. Перезагрузка (2017.10.30) WEB-DL [H.264 / 720p-LQ] (сезон 14: Барселона. Испания)

        (скачиваний: 4)
        Николай Ягодкин | Технология постановки навыков (2013) PCRec [H.264]

        (скачиваний: 4)
        Горная бригада (2014) HDTVRip [720p-LQ] [Серии: 1-12 из 12] скачать через торрент бесплатно

        (скачиваний: 4)
        Журнал | Рецепты на бис. Спецвыпуск №1 (19) (2017) [PDF]

        (скачиваний: 4)
        Айрэн По, Джули По | Нумерология, как профессия. Мы из матрицы. Книга 1 (2016) [DJVU]

        (скачиваний: 4)