.
Авторизация | Регистрация
Хочешь лучшие торренты? Добавь свой email!
Добавить

Торрент скачать бесплатно

» » Дубровницкая республика / The Republic - A History of Dubrovnik (2016) SATRip (серии 1 из 6) (Обновляемая) торрент скачать бесплатно




    Дубровницкая республика / The Republic - A History of Dubrovnik (2016) SATRip (серии 1 из 6) (Обновляемая) торрент скачать бесплатно

    Опубликовал: Админ | Дата: 5-05-2017, 05:00 | Просмотров: 1

    Телекомпания: Хорватия, Croatian National Television (HRT)
    Жанр: Документально-постановочный, история
    Режиссер: Бозидар Домагож Берик
    Участники: Никола Бас, Михаэль Руджер Рапаич, Тан Антон Лумези

    Описание

    Новый сериал Радиотелевидения Хорватии расскажет о одном из величайших феноменов в истории Хорватии: Дубровницкой республике.
    Этот красивый хорватский город известен во всем мире, но насколько люди действительно знают о его богатой истории? Во многих фильмах и телевизионных проектах Дубровник всегда представлял собой уникальный кинематографический фон. Сериал бросает вызов устоявшимся историческим взглядам и насыщен удивительными и малоизвестными фактами, которые проливают свет на загадочную и ныне практически забытую эпоху правления гордых хорватских королей. Дубровник - это первое государство в Европе, ОТМЕНЯЮЩЕЕ РАБСТВО (1416 г.), за 150 лет до Англии и 450 лет до США!

    Релиз от: рипskorpionN
    Продолжительность: ~00: 48: 40 серия
    Качество видео: SATRip
    Перевод: Одноголосый закадровый, профессиональный (SDI Media)
    Автор перевода: Анна Заславская
    Текст читает: Владислав Букин
    Видео: AVC/H.264, 720x576@1024x576, ~1300 kbps
    Аудио: AC3, 2 ch, 192 Kbps

    Общее
    Идентификатор : 1 (0x1)
    Полное имя : F: КИНОRepublicPart_01.ts
    Формат : MPEG-TS
    Размер файла : 564 Мбайт
    Продолжительность : 48 м. 39 с.
    Режим общего битрейта : Переменный
    Общий поток : 1620 Кбит/сек
    Максимальный общий битрейт : 35, 5 Мбит/сек
    Видео
    Идентификатор : 4113 (0x1011)
    Идентификатор меню : 1 (0x1)
    Формат : AVC
    Формат/Информация : Advanced Video Codec
    Профиль формата : High@L4.1
    Параметр CABAC формата : Да
    Параметр ReFrames формата : 8 кадров
    Идентификатор кодека : 27
    Продолжительность : 48 м. 39 с.
    Вид битрейта : Переменный
    Битрейт : 1346 Кбит/сек
    Максимальный битрейт : 40, 0 Мбит/сек
    Ширина : 720 пикселей
    Высота : 576 пикселей
    Соотношение сторон : 16: 9
    Частота кадров : 25, 000 кадров/сек
    Стандарт вещания : PAL
    Цветовое пространство : YUV
    Субдискретизация насыщенности : 4: 2: 0
    Битовая глубина : 8 бит
    Тип развёртки : Прогрессивная
    Бит/(Пиксели*Кадры) : 0.130
    Размер потока : 468 Мбайт (83%)
    Язык : English
    Аудио
    Идентификатор : 4352 (0x1100)
    Идентификатор меню : 1 (0x1)
    Формат : AC-3
    Формат/Информация : Audio Coding 3
    Параметр Endianness формата : Big
    Идентификатор кодека : 129
    Продолжительность : 48 м. 39 с.
    Вид битрейта : Постоянный
    Битрейт : 192 Кбит/сек
    Каналы : 2 канала
    Расположение каналов : Front: L R
    Частота : 48, 0 КГц
    Частота кадров : 31, 250 кадров/сек (1536 spf)
    Битовая глубина : 16 бит
    Метод сжатия : С потерями
    Размер потока : 66, 8 Мбайт (12%)
    Язык : Russian
    ServiceKind/String : Complete Main


    Скриншоты для ознакомления




    Дубровницкая республика/The Republic - A History of Dubrovnik (2016) SATRip (серии 1 из 6) (Обновляемая)
    загрузка...
    Рейтинг →
     (голосов: 1, оценка 5/5, голосовать можно 1 раз )

    Другие торренты по теме:



      Комментарии (0):

      Информация

      Информация

        Посетители, находящиеся в группе Гости, не могут оставлять комментарии в данной новости.

        ↓ Меню




        ↓ Опрос

        Вы добавили сайт в закладки?
        Да
        Нет


        Top 10 за месяц (Передачи)

        Михаил Задорнов. Лучшее - сборник лучших эстрадных номеров Михаила Задорнова за 30 лет (1984-2014) WEBRip скачать через торрент бесплатно

        (скачиваний: 8)
        Журнал | Всему свету по совету №1 (228) (январь 2017) [PDF]

        (скачиваний: 6)
        Орел и решка. Перезагрузка (2017.11.07) WEB-DL [H.264 / 720p-LQ] (сезон 14: Ибица. Испания)

        (скачиваний: 6)
        Фигурное катание. Гран-при 2017-2018. 3-й Этап. Кубок Китая 2017. Пекин (Китай). 2 День (04.11.2017) HDTV [H.264 / 1080i-LQ]

        (скачиваний: 6)
        Трэвис Хэйли. Адаптивный автомат Калашникова / Travis Haley: Adaptive Kalash (2011) WEBRip [720p-LQ] скачать через торрент бесплатно

        (скачиваний: 5)
        Святитель Феофан Затворник | Собрание сочинений [69 Томов] (2008) [FB2]

        (скачиваний: 5)
        Журнал | Рецепты на бис. Спецвыпуск №1 (19) (2017) [PDF]

        (скачиваний: 4)
        Айрэн По, Джули По | Нумерология, как профессия. Мы из матрицы. Книга 1 (2016) [DJVU]

        (скачиваний: 4)
        Николай Ягодкин | Технология постановки навыков (2013) PCRec [H.264]

        (скачиваний: 4)
        Орел и решка. Перезагрузка (2017.10.30) WEB-DL [H.264 / 720p-LQ] (сезон 14: Барселона. Испания)

        (скачиваний: 4)