.
Авторизация | Регистрация
Хочешь лучшие торренты? Добавь свой email!
Добавить

Торрент скачать бесплатно

» » Discovery: Золотой путь Паркера Шнабеля / Gold rush Parkers trail (2017) HDTVRip [H.264 / 720p-LQ] (Серии 1 из 5) (Обновляемая) торрент скачать бесплатно




    Discovery: Золотой путь Паркера Шнабеля / Gold rush Parkers trail (2017) HDTVRip [H.264 / 720p-LQ] (Серии 1 из 5) (Обновляемая) торрент скачать бесплатно

    Опубликовал: Админ | Дата: 5-05-2017, 05:00 | Просмотров: 0

    Телекомпания: США, Discovery Channel
    Жанр: Документальный, природа, география, путешествия, приключения, исследование
    Режиссер: Джеймс Левел
    Участники: Пол Кристи, Рик Несс, Паркер Шнабель

    Описание

    В конце XIX века более 100 тысяч человек отправились к покрытому льдом Клондайку в поисках удачи и богатства, но большинство из них так и не добрались до конца пути. Голодные медведи, суровая местность, бурные горные потоки и жгучие морозы пощадили лишь каждого третьего путешественника. Теперь по следам своих предков-золотодобытчиков отправляется Паркер Шнабель.
    К 22 годам он уже добыл золота на $13 миллионов, и теперь пришло время проверить, хватит ли у него стойкости пройти путем первых покорителей Клондайка. В новой программе Золотой путь Паркера Шнабеля он вместе с командой намерен пересечь Береговой хребет и преодолеть сложный маршрут от своего дома на Аляске до легендарных приисков. Смогут ли участники справиться со всеми трудностями и разногласиями и войти в число тех немногих, кто дошёл до конца – зависит только от них самих.

    Продолжительность: 1 x ~ 00: 44: 00
    Качество видео: HDTVRip
    Перевод: Двуголосый закадровый, профессиональный
    Видео: AVC/H.264, 1280x720, ~4000 Kbps
    Аудио: MP2, 2 ch, 192 Kbps

    Общее
    Уникальный идентификатор : 282501908930168499200690711075136507306 (0xD487E379AF606B1406DAF15D63F08DAA)
    Полное имя : F: КИНОЗолотой путь Паркера Шнабеля 720p RG HitWay1 Золотой путь Паркера Шнабеля .mkv
    Формат : Matroska
    Версия формата : Version 2
    Размер файла : 1, 29 Гбайт
    Продолжительность : 43 м. Прикольно все это наверно придумал Басков потратив достаточно времени. 55 с.
    Режим общего битрейта : Постоянный
    Общий поток : 4196 Кбит/сек
    Программа кодирования : Lavf54.63.104
    Библиотека кодирования : Lavf54.63.104
    Видео
    Идентификатор : 1
    Формат : AVC
    Формат/Информация : Advanced Video Codec
    Профиль формата : High@L4.1
    Параметр CABAC формата : Да
    Параметр ReFrames формата : 3 кадра
    Идентификатор кодека : V_MPEG4/ISO/AVC
    Продолжительность : 43 м. Волк в овечьей шкуре, сказал кто то из толпы, к чему не понятно. 55 с.
    Вид битрейта : Постоянный
    Битрейт : 4000 Кбит/сек
    Ширина : 1280 пикселей
    Высота : 720 пикселей
    Соотношение сторон : 16: 9
    Режим частоты кадров : Постоянный
    Частота кадров : 30, 000 кадров/сек
    Стандарт вещания : NTSC
    Цветовое пространство : YUV
    Субдискретизация насыщенности : 4: 2: 0
    Битовая глубина : 8 бит
    Тип развёртки : Прогрессивная
    Бит/(Пиксели*Кадры) : 0.145
    Размер потока : 1, 20 Гбайт (93%)
    Default : Нет
    Forced : Нет
    Цветовой диапазон : Limited
    Основные цвета : BT.709
    Характеристики трансфера : BT.709
    Коэффициенты матрицы : BT.709
    Аудио
    Идентификатор : 2
    Формат : MPEG Audio
    Версия формата : Version 1
    Профиль формата : Layer 2
    Идентификатор кодека : A_MPEG/L2
    Идентификатор кодека/Подсказка : MP2
    Продолжительность : 43 м. Самое интересное в это истории, что об этом Басков ничего не знал. 55 с.
    Вид битрейта : Постоянный
    Битрейт : 192 Кбит/сек
    Каналы : 2 канала
    Частота : 48, 0 КГц
    Метод сжатия : С потерями
    Задержка видео : 24 мс.
    Размер потока : 60, 3 Мбайт (5%)
    Язык : English
    Default : Да
    Forced : Нет


    Скриншоты для ознакомления




    Discovery: Золотой путь Паркера Шнабеля/Gold rush Parkers trail (2017) HDTVRip [H.264/720p-LQ] (Серии 1 из 5) (Обновляемая)
    загрузка...
    Рейтинг →
     (голосов: 1, оценка 4/5, голосовать можно 1 раз )

    Другие торренты по теме:

  • Discovery: Столпы Америки / American Titans (2015) DVB (сезон 1, серии 3 из 6)
  • Discovery. Сканируя небо: телескоп Discovery Channel / Scanning the skies: the Discovery Channel telescope (2012) HDTVRip [H.264 / 720p]
  • Discovery Science: Сканируя небо: телескоп Discovery Channel / Scanning the skies: the Discovery Channel telescope (2012) WEBRip скачать через торрент бесплатно
  • Discovery Science: Существа внутри нас / Discovery Science: Creatures Inside Us (2010) SATRip
  • Discovery: Восстание машин (серии 1-2) / Discovery: Rise of the Machines (2014) SATRip
  • Discovery: Секреты и Заговоры / Discovery: Codes and Conspiracies (2014) SATRip (сезон 1 серии 1-6 из 6) скачать через торрент бесплатно
  • Discovery: Разрушители легенд. Специальный выпуск: видеоигры / MythBusters. Video Games Special (2015) SATRip (Сезон 15, эпизод 04) [Discovery] скачать через торрент бесплатно
  • Discovery: Разрушители легенд. Трансформеры / MythBusters. Transformers (2015) SATRip (Сезон 15, эпизод 05) [Discovery] скачать через торрент бесплатно


    • Комментарии (0):

      Информация

      Информация

        Посетители, находящиеся в группе Гости, не могут оставлять комментарии в данной новости.

        ↓ Меню




        ↓ Опрос

        Вы добавили сайт в закладки?
        Да
        Нет


        Top 10 за месяц (Передачи)

        Михаил Задорнов. Лучшее - сборник лучших эстрадных номеров Михаила Задорнова за 30 лет (1984-2014) WEBRip скачать через торрент бесплатно

        (скачиваний: 7)
        Журнал | Всему свету по совету №1 (228) (январь 2017) [PDF]

        (скачиваний: 6)
        Фигурное катание. Гран-при 2017-2018. 3-й Этап. Кубок Китая 2017. Пекин (Китай). 2 День (04.11.2017) HDTV [H.264 / 1080i-LQ]

        (скачиваний: 6)
        Трэвис Хэйли. Адаптивный автомат Калашникова / Travis Haley: Adaptive Kalash (2011) WEBRip [720p-LQ] скачать через торрент бесплатно

        (скачиваний: 5)
        Святитель Феофан Затворник | Собрание сочинений [69 Томов] (2008) [FB2]

        (скачиваний: 5)
        Орел и решка. Перезагрузка (2017.11.07) WEB-DL [H.264 / 720p-LQ] (сезон 14: Ибица. Испания)

        (скачиваний: 4)
        Николай Ягодкин | Технология постановки навыков (2013) PCRec [H.264]

        (скачиваний: 4)
        Журнал | Рецепты на бис. Спецвыпуск №1 (19) (2017) [PDF]

        (скачиваний: 4)
        Айрэн По, Джули По | Нумерология, как профессия. Мы из матрицы. Книга 1 (2016) [DJVU]

        (скачиваний: 4)
        Comedy Club (2010-2014) SATRip / WEB-DLRip [Выпуск: 201-363] скачать через торрент бесплатно

        (скачиваний: 4)