.
Авторизация | Регистрация
Хочешь лучшие торренты? Добавь свой email!
Добавить

Торрент скачать бесплатно

» » Мастерская «Фантом Уоркс» / FantomWorks (2014) HDTVRip [Rus] [AVC / 1080i] (сезон 2, серии 1-6 из 7) торрент скачать бесплатно




    Мастерская «Фантом Уоркс» / FantomWorks (2014) HDTVRip [Rus] [AVC / 1080i] (сезон 2, серии 1-6 из 7) торрент скачать бесплатно

    Опубликовал: Админ | Дата: 12-03-2017, 05:00 | Просмотров: 3

    Телекомпания: Descovery
    Жанр: Телепередача
    Участники: Dan Short, Rob Dietzel, Allan Alvarez

    Описание

    Дэн Корот, бывший пилот-испытатель, надеется, что Fantomworks станет самой крупной в США мастерской по восстановлению классических автомобилей, которая работает с военной точностью. Вместо этого он выясняет, что при создании старых автомобилей лучше, чем новые - ничего не идет по плану. Очень качественно и довольно подробно рассказывают о том что делают.

    Продолжительность: ~ 44: 00 каждая серия
    Качество видео: HDTVRip
    Перевод: Одноголосый закадровый, профессиональный
    Язык: Русский
    Видео: AVC/H.264, 1920x1080, ~7000 Kbps
    Аудио: MP2, 2 ch, 224 Kbps
    FantomWorks - S2E1 - Tip of the Iceberg.ts
    Format : MPEG-TS
    File size : 2.27 GiB
    Duration : 43 min 35 s
    Overall bit rate mode : Variable
    Overall bit rate : 7 469 kb/s
    Video
    ID : 224 (0xE0)
    Menu ID : 1 (0x1)
    Format : AVC
    Format/Info : Advanced Video Codec
    Format profile : High@L4.1
    Format settings, CABAC : Yes
    Format settings, ReFrames : 3 frames
    Codec ID : 27
    Duration : 43 min 35 s
    Bit rate mode : Constant
    Bit rate : 7 000 kb/s
    Width : 1 920 pixels
    Height : 1 080 pixels
    Display aspect ratio : 16: 9
    Frame rate : 30.000 FPS
    Standard : NTSC
    Color space : YUV
    Chroma subsampling : 4: 2: 0
    Bit depth : 8 bits
    Scan type : Progressive
    Bits/(Pixel*Frame) : 0.113
    Stream size : 2.09 GiB (92%)
    Color range : Limited
    Color primaries : BT.709
    Transfer characteristics : BT.709
    Matrix coefficients : BT.709
    Audio
    ID : 192 (0xC0)
    Menu ID : 1 (0x1)
    Format : MPEG Audio
    Format version : Version 1
    Format profile : Layer 2
    Codec ID : 3
    Duration : 43 min 35 s
    Bit rate mode : Constant
    Bit rate : 224 kb/s
    Channel(s) : 2 channels
    Sampling rate : 48.0 kHz
    Compression mode : Lossy
    Delay relative to video : 33 ms
    Stream size : 69.8 MiB (3%)
    Language : English
    FantomWorks - S2E2 - Fast Dangerous.ts
    Format : MPEG-TS
    File size : 2.24 GiB
    Duration : 42 min 51 s
    Overall bit rate mode : Variable
    Overall bit rate : 7 469 kb/s
    Video
    ID : 224 (0xE0)
    Menu ID : 1 (0x1)
    Format : AVC
    Format/Info : Advanced Video Codec
    Format profile : High@L4.1
    Format settings, CABAC : Yes
    Format settings, ReFrames : 3 frames
    Codec ID : 27
    Duration : 42 min 51 s
    Bit rate mode : Constant
    Bit rate : 7 000 kb/s
    Width : 1 920 pixels
    Height : 1 080 pixels
    Display aspect ratio : 16: 9
    Frame rate : 30.000 FPS
    Standard : NTSC
    Color space : YUV
    Chroma subsampling : 4: 2: 0
    Bit depth : 8 bits
    Scan type : Progressive
    Bits/(Pixel*Frame) : 0.113
    Stream size : 2.06 GiB (92%)
    Color range : Limited
    Color primaries : BT.709
    Transfer characteristics : BT.709
    Matrix coefficients : BT.709
    Audio
    ID : 192 (0xC0)
    Menu ID : 1 (0x1)
    Format : MPEG Audio
    Format version : Version 1
    Format profile : Layer 2
    Codec ID : 3
    Duration : 42 min 51 s
    Bit rate mode : Constant
    Bit rate : 224 kb/s
    Channel(s) : 2 channels
    Sampling rate : 48.0 kHz
    Compression mode : Lossy
    Delay relative to video : 33 ms
    Stream size : 68.7 MiB (3%)
    Language : English
    FantomWorks - S2E3 - Mach Speed.ts
    Format : MPEG-TS
    File size : 2.30 GiB
    Duration : 44 min 0 s
    Overall bit rate mode : Variable
    Overall bit rate : 7 469 kb/s
    Video
    ID : 224 (0xE0)
    Menu ID : 1 (0x1)
    Format : AVC
    Format/Info : Advanced Video Codec
    Format profile : High@L4.1
    Format settings, CABAC : Yes
    Format settings, ReFrames : 3 frames
    Codec ID : 27
    Duration : 44 min 0 s
    Bit rate mode : Constant
    Bit rate : 7 000 kb/s
    Width : 1 920 pixels
    Height : 1 080 pixels
    Display aspect ratio : 16: 9
    Frame rate : 30.000 FPS
    Standard : NTSC
    Color space : YUV
    Chroma subsampling : 4: 2: 0
    Bit depth : 8 bits
    Scan type : Progressive
    Bits/(Pixel*Frame) : 0.113
    Stream size : 2.11 GiB (92%)
    Color range : Limited
    Color primaries : BT.709
    Transfer characteristics : BT.709
    Matrix coefficients : BT.709
    Audio
    ID : 4097 (0x1001)
    Menu ID : 1 (0x1)
    Format : MPEG Audio
    Format version : Version 1
    Format profile : Layer 2
    Codec ID : 3
    Duration : 44 min 0 s
    Bit rate mode : Constant
    Bit rate : 224 kb/s
    Channel(s) : 2 channels
    Sampling rate : 48.0 kHz
    Compression mode : Lossy
    Delay relative to video : 5 ms
    Stream size : 70.5 MiB (3%)
    Language : English
    FantomWorks - S2E4 - Ticker to Ride.ts
    Format : MPEG-TS
    File size : 2.29 GiB
    Duration : 43 min 49 s
    Overall bit rate mode : Variable
    Overall bit rate : 7 467 kb/s
    Video
    ID : 224 (0xE0)
    Menu ID : 1 (0x1)
    Format : AVC
    Format/Info : Advanced Video Codec
    Format profile : High@L4.1
    Format settings, CABAC : Yes
    Format settings, ReFrames : 3 frames
    Codec ID : 27
    Duration : 43 min 49 s
    Bit rate mode : Constant
    Bit rate : 7 000 kb/s
    Width : 1 920 pixels
    Height : 1 080 pixels
    Display aspect ratio : 16: 9
    Frame rate : 30.000 FPS
    Standard : NTSC
    Color space : YUV
    Chroma subsampling : 4: 2: 0
    Bit depth : 8 bits
    Scan type : Progressive
    Bits/(Pixel*Frame) : 0.113
    Stream size : 2.10 GiB (92%)
    Color range : Limited
    Color primaries : BT.709
    Transfer characteristics : BT.709
    Matrix coefficients : BT.709
    Audio
    ID : 4097 (0x1001)
    Menu ID : 1 (0x1)
    Format : MPEG Audio
    Format version : Version 1
    Format profile : Layer 2
    Codec ID : 3
    Duration : 43 min 49 s
    Bit rate mode : Constant
    Bit rate : 224 kb/s
    Channel(s) : 2 channels
    Sampling rate : 48.0 kHz
    Compression mode : Lossy
    Delay relative to video : 7 ms
    Stream size : 70.2 MiB (3%)
    Language : English
    FantomWorks - S2E5 - Size Does Matter.ts
    Format : MPEG-TS
    File size : 2.29 GiB
    Duration : 43 min 53 s
    Overall bit rate mode : Variable
    Overall bit rate : 7 467 kb/s
    Video
    ID : 224 (0xE0)
    Menu ID : 1 (0x1)
    Format : AVC
    Format/Info : Advanced Video Codec
    Format profile : High@L4.1
    Format settings, CABAC : Yes
    Format settings, ReFrames : 3 frames
    Codec ID : 27
    Duration : 43 min 53 s
    Bit rate mode : Constant
    Bit rate : 7 000 kb/s
    Width : 1 920 pixels
    Height : 1 080 pixels
    Display aspect ratio : 16: 9
    Frame rate : 30.000 FPS
    Standard : NTSC
    Color space : YUV
    Chroma subsampling : 4: 2: 0
    Bit depth : 8 bits
    Scan type : Progressive
    Bits/(Pixel*Frame) : 0.113
    Stream size : 2.11 GiB (92%)
    Color range : Limited
    Color primaries : BT.709
    Transfer characteristics : BT.709
    Matrix coefficients : BT.709
    Audio
    ID : 4097 (0x1001)
    Menu ID : 1 (0x1)
    Format : MPEG Audio
    Format version : Version 1
    Format profile : Layer 2
    Codec ID : 3
    Duration : 43 min 52 s
    Bit rate mode : Constant
    Bit rate : 224 kb/s
    Channel(s) : 2 channels
    Sampling rate : 48.0 kHz
    Compression mode : Lossy
    Delay relative to video : 18 ms
    Stream size : 70.3 MiB (3%)
    Language : English
    FantomWorks - S2E6 - Buyer Beware.ts
    Format : MPEG-TS
    File size : 2.29 GiB
    Duration : 43 min 53 s
    Overall bit rate mode : Variable
    Overall bit rate : 7 467 kb/s
    Video
    ID : 224 (0xE0)
    Menu ID : 1 (0x1)
    Format : AVC
    Format/Info : Advanced Video Codec
    Format profile : High@L4.1
    Format settings, CABAC : Yes
    Format settings, ReFrames : 3 frames
    Codec ID : 27
    Duration : 43 min 53 s
    Bit rate mode : Constant
    Bit rate : 7 000 kb/s
    Width : 1 920 pixels
    Height : 1 080 pixels
    Display aspect ratio : 16: 9
    Frame rate : 30.000 FPS
    Standard : NTSC
    Color space : YUV
    Chroma subsampling : 4: 2: 0
    Bit depth : 8 bits
    Scan type : Progressive
    Bits/(Pixel*Frame) : 0.113
    Stream size : 2.11 GiB (92%)
    Color range : Limited
    Color primaries : BT.709
    Transfer characteristics : BT.709
    Matrix coefficients : BT.709
    Audio
    ID : 4097 (0x1001)
    Menu ID : 1 (0x1)
    Format : MPEG Audio
    Format version : Version 1
    Format profile : Layer 2
    Codec ID : 3
    Duration : 43 min 53 s
    Bit rate mode : Constant
    Bit rate : 224 kb/s
    Channel(s) : 2 channels
    Sampling rate : 48.0 kHz
    Compression mode : Lossy
    Delay relative to video : 23 ms
    Stream size : 70.3 MiB (3%)
    Language : English
    1.Tip of the Iceberg
    A 1983 Avanti arrives with $58, 000 worth of mismatched parts, an engine that doesn\'t fit and a cascade of problems. A 3100 Chevy Pick-up rolls in with rope holding the doors shut, but the team soon learns that this is the tip of a very ugly iceberg.
    2.Fast Dangerous
    A 1977 Corvette Stingray arrives with too many problems to count. The restoration makes no sense, but Dan takes it on for an emotional owner. A 1965 Cobra is brought in for a simple wiring job, but then the owner decides to add machine guns.
    3.Mach Speed
    Mike wants Dan to make his prized Mach 1 even more of a muscle car. Richard brings FantomWorks the first \'his and hers\' restoration, a Sunbeam Tiger and a Fiat Spider. Dan soon discovers the challenges of the two cars are not equal.
    4.Ticket to Ride
    A 1941 Buick Coupe rolls into FantomWorks, with the worst possible combination for Dan and the team, a difficult car and a demanding owner. Janelle wants her Kawasaki KZ-750 motorcycle transformed into a cool stripped down \'caf\' bike.
    5.Size Does Matter
    The owner of a C10 pick-up wants a full frame off restoration, but things get ugly when they peel off the paint. A Heinkel comes in with mismatched scooter parts but Dan learns that the cheap add-ons were hiding a very rare car.
    6.Buyer Beware
    A 1917 Overland will be FantomWorks oldest restoration, if they can solve this puzzle of rotted wood and rust. Dan buys a 1968 Camaro on the internet, and against the advice of everyone else at the shop, he decides to build it as a present for his wife.
    7. Белая горячка, сказал кто то из толпы, к чему не понятно. НЕТ СЕРИИ!!!
    Race to the Finish
    Steve wants to run his 1954 Oldsmobile in a 1, 000 mile road race. Fantomworks face a tight budget, a tough schedule and race rules. Jim wants Fantomworks to bring his 1977 Spitfire to life; but Dan puts his foot down when safety issues are discovered.


    Скриншоты для ознакомления




    Мастерская «Фантом Уоркс»/FantomWorks (2014) HDTVRip [Rus] [AVC/1080i] (сезон 2, серии 1-6 из 7)
    загрузка...
    Рейтинг →
     (голосов: 1, оценка 4/5, голосовать можно 1 раз )

    Другие торренты по теме:

  • Мастерская «Фантом Уоркс» / FantomWorks (2013) SATRip (сезон 1, серии 1-6 из 6) (обновляимая)
  • Discovery: Мастерская «Фантом Уоркс» / Fantom Works (2016) SATRip [H.264] (сезон 4, серии 1-2 из 7) (обновляемая)
  • Discovery: Мастерская «Фантом Уоркс» / FantomWorks (2015) SATRip [H.264] (Сезон 3, серии 4 из 10) (обновляемая)
  • Мастерская «Фантом Уоркс» / FantomWorks (2015) SATRip [H.264] (сезон 3, серии 1-2, 4-5, 8 из 10) [AD]
  • Мастерская «Фантом Уоркс» / FantomWorks (2016) SATRip [H.264] (сезон 5, серии 1 из 7) [AD]


    • Комментарии (0):

      Информация

      Информация

        Посетители, находящиеся в группе Гости, не могут оставлять комментарии в данной новости.

        ↓ Меню




        ↓ Опрос

        Вы добавили сайт в закладки?
        Да
        Нет


        Top 10 за месяц (Передачи)