.
Авторизация | Регистрация
Хочешь лучшие торренты? Добавь свой email!
Добавить

Торрент скачать бесплатно

» » В гостях у Элис / Home Again (2017) WEB-DL [720p] ATV торрент скачать бесплатно




    В гостях у Элис / Home Again (2017) WEB-DL [720p] ATV торрент скачать бесплатно

    Опубликовал: Админ | Дата: 1-12-2017, 05:00 | Просмотров: 0

    Год выпуска : 2017
    Производство : США
    Жанр : Драма, мелодрама, комедия
    Продолжительность : 01: 38: 31
    Перевод : Дублированный(iTunes)
    Субтитры : Английские
    Режиссер : Холли Мейерс-Шайер
    Актеры : Риз Уизерспун, Майкл Шин, Лэйк Белл, Нат Вулф, Кэндис Берген, Кристин Вудс, Лола Флэнери, Пейдж Спара, Пико Александр, Рейд Скотт
    Мировая премьера : 7 сентября 2017

    Описание : Жизнь матери-одиночки из Лос-Анджелеса неожиданно меняется, когда она разрешает трем парням пожить у нее.
    Качество : WEB-DL 720p
    Контейнер : M4V
    Видео : H.264, 1280x688, 1.85: 1, 4 068 Kbps, 23.976 fps
    Аудио 1 : Русский/Дублированный (iTunes), AAC/2.0/160 Kbps/48.0 KHz
    Аудио 2 : Английский/Оригинальная дорожка , AAC/2.0/160 Kbps/48.0 KHz
    Аудио 3 : Русский/Дублированный (iTunes), AC-3/5.1/384 Kbps/48.0 KHz
    Аудио 4 : Английский/Оригинальная дорожка , AC-3/5.1/384 Kbps/48.0 KHz
    Код: выделить все

    Sort Name: Home Again
    XID: Apple:vendor_id:2017-987151
    contentID: 1275183214
    Copyright: © 2017 Open Road Films. All Rights Reserved.
    Screenwriters: Холли Мейерс-Шайер
    Producers: Нэнси Майерс, Эрика Олд, Пола Кейс
    Director: Холли Мейерс-Шайер
    Cast: Риз Уизерспун, Майкл Шин, Лэйк Белл, Нат Вулф, Кэндис Берген, Кристин Вудс, Лола Флэнери, Пейдж Спара, Пико Александр, Рейд Скотт
    Studio: Open Road Films
    Rating: 4
    Long Description: Жизнь матери-одиночки из Лос-Анджелеса неожиданно меняется, когда она разрешает трем парням пожить у нее.
    Description: Жизнь матери-одиночки из Лос-Анджелеса неожиданно меняется, когда она разрешает трем парням пожить у нее.
    Release Date: 2017-09-07T08:00:00Z
    Genre: Romance
    Artist: Hallie Meyers-Shyer
    Name: Home Again (2017)
    Код: выделить все

    General
    Complete name : /Users/imac/HandBrake/Home.Again.WEB-DL.720p.m4v
    Format : MPEG-4
    Codec ID : M4V
    File size : 3.50 GiB
    Duration : 1h 37mn
    Overall bit rate mode : Variable
    Overall bit rate : 5 151 Kbps
    Movie name : Home Again (2017)
    Performer : Hallie Meyers-Shyer
    Director : Холли Мейерс-Шайер
    Actor : Риз Уизерспун/Майкл Шин/Лэйк Белл/Нат Вулф/Кэндис Берген/Кристин Вудс/Лола Флэнери/Пейдж Спара/Пико Александр/Рейд Скотт
    Screenplay by : Холли Мейерс-Шайер
    Producer : Нэнси Майерс/Эрика Олд/Пола Кейс
    Production studio : Open Road Films
    Genre : Romance
    ContentType : Short Film
    Description : Жизнь матери-одиночки из Лос-Анджелеса неожиданно меняется, когда она разрешает трем парням пожить у нее.
    Recorded date : UTC 2017-09-07 08:00:00
    Encoded date : UTC 2017-11-30 15:33:19
    Tagged date : UTC 2017-11-30 15:35:35
    Copyright : © 2017 Open Road Films. All Rights Reserved.
    Cover : Yes
    Rating : None
    Title/Sort : Home Again
    LongDescription : Жизнь матери-одиночки из Лос-Анджелеса неожиданно меняется, когда она разрешает трем парням пожить у нее.
    HDVideo : Yes
    AppleStoreCatalogID : 1275183214
    Vendor : Apple:vendor_id:2017-987151
    ContentRating : mpaa|PG-13|300|
    Video #1
    ID : 1
    Format : AVC
    Format/Info : Advanced Video Codec
    Format profile :High@L3.1
    Format settings, CABAC : No
    Format settings, ReFrames : 2 frames
    Codec ID : avc1
    Codec ID/Info : Advanced Video Coding
    Duration : 1h 37mn
    Bit rate : 4 068 Kbps
    Width : 1 280 pixels
    Height : 688 pixels
    Display aspect ratio : 1.85:1
    Frame rate mode : Variable
    Frame rate : 23.976 fps
    Minimum frame rate : 23.810 fps
    Maximum frame rate : 24.390 fps
    Color space : YUV
    Chroma subsampling : 4:2:0
    Bit depth : 8 bits
    Scan type : Progressive
    Bits/(Pixel*Frame) : 0.193
    Stream size : 2.76 GiB (79%)
    Title : Main Program
    Language : English
    Encoded date : UTC 2017-11-30 15:33:19
    Tagged date : UTC 2017-11-30 15:34:41
    Color range : Limited
    Color primaries : BT.709
    Transfer characteristics : BT.709
    Matrix coefficients : BT.709
    Video #2
    ID : 8
    Format : JPEG
    Codec ID : jpeg
    Duration : 1h 37mn
    Bit rate mode : Variable
    Bit rate : 1 342 bps
    Width : 640 pixels
    Height : 344 pixels
    Display aspect ratio : 1.85:1
    Frame rate mode : Variable
    Frame rate : 0.003 fps
    Minimum frame rate : 0.002 fps
    Maximum frame rate : 0.007 fps
    Color space : YUV
    Chroma subsampling : 4:2:0
    Bit depth : 8 bits
    Compression mode : Lossy
    Bits/(Pixel*Frame) : 2.032
    Stream size : 1.07 MiB (0%)
    Title : Chapter Images
    Language : English
    Encoded date : UTC 2017-11-30 15:34:46
    Tagged date : UTC 2017-11-30 15:34:47
    Audio #1
    ID : 2
    Format : AAC
    Format/Info : Advanced Audio Codec
    Format profile : LC
    Codec ID : 40
    Duration : 1h 37mn
    Source duration : 1h 37mn
    Bit rate mode : Variable
    Bit rate : 156 Kbps
    Maximum bit rate : 268 Kbps
    Channel(s) : 2 channels
    Channel positions : Front: L R
    Sampling rate : 48.0 KHz
    Compression mode : Lossy
    Stream size : 109 MiB (3%)
    Source stream size : 109 MiB (3%)
    Title : Russian Stereo
    Language : Russian
    Encoded date : UTC 2017-11-30 15:33:20
    Tagged date : UTC 2017-11-30 15:33:26
    Audio #2
    ID : 3
    Format : AAC
    Format/Info : Advanced Audio Codec
    Format profile : LC
    Codec ID : 40
    Duration : 1h 37mn
    Source duration : 1h 37mn
    Bit rate mode : Variable
    Bit rate : 152 Kbps
    Maximum bit rate : 236 Kbps
    Channel(s) : 2 channels
    Channel positions : Front: L R
    Sampling rate : 48.0 KHz
    Compression mode : Lossy
    Stream size : 106 MiB (3%)
    Source stream size : 106 MiB (3%)
    Title : English Stereo
    Language : English
    Encoded date : UTC 2017-11-30 15:33:20
    Tagged date : UTC 2017-11-30 15:33:26
    Audio #3
    ID : 4
    Format : AC-3
    Format/Info : Audio Coding 3
    Mode extension : CM (complete main)
    Format settings, Endianness : Big
    Codec ID : ac-3
    Duration : 1h 37mn
    Bit rate mode : Constant
    Bit rate : 384 Kbps
    Channel(s) : 6 channels
    Channel positions : Front: L C R, Side: L R, LFE
    Sampling rate : 48.0 KHz
    Bit depth : 16 bits
    Compression mode : Lossy
    Stream size : 267 MiB (7%)
    Title : Russian DD 5.1
    Language : Russian
    Encoded date : UTC 2017-11-30 15:33:20
    Tagged date : UTC 2017-11-30 15:33:26
    Audio #4
    ID : 5
    Format : AC-3
    Format/Info : Audio Coding 3
    Mode extension : CM (complete main)
    Format settings, Endianness : Big
    Codec ID : ac-3
    Duration : 1h 37mn
    Bit rate mode : Constant
    Bit rate : 384 Kbps
    Channel(s) : 6 channels
    Channel positions : Front: L C R, Side: L R, LFE
    Sampling rate : 48.0 KHz
    Bit depth : 16 bits
    Compression mode : Lossy
    Stream size : 267 MiB (7%)
    Title : English DD 5.1
    Language : English
    Encoded date : UTC 2017-11-30 15:33:20
    Tagged date : UTC 2017-11-30 15:33:26
    Text
    ID : 6
    Format : Timed Text
    Muxing mode : sbtl
    Codec ID : tx3g
    Duration : 1h 31mn
    Bit rate mode : Variable
    Bit rate : 107 bps
    Stream size : 72.0 KiB (0%)
    Title : English full
    Language : English
    Encoded date : UTC 2017-11-30 15:33:20
    Tagged date : UTC 2017-11-30 15:33:26
    Menu #1
    00:00:00.000 : 1
    00:06:01.111 : 2
    00:11:01.286 : 3
    00:16:55.223 : 4
    00:20:12.211 : 5
    00:25:09.132 : 6
    00:29:38.276 : 7
    00:35:05.353 : 8
    00:40:24.088 : 9
    00:46:33.916 : 10
    00:51:48.355 : 11
    00:54:49.160 : 12
    00:59:21.140 : 13
    01:03:17.209 : 14
    01:09:24.284 : 15
    01:15:04.123 : 16
    01:17:20.759 : 17
    01:21:09.696 : 18
    01:27:52.306 : 19
    01:32:43.096 : 20
    Menu #2
    ID : 7
    Codec ID : text
    Duration : 1h 37mn
    Language : English
    Encoded date : UTC 2017-11-30 15:34:41
    Tagged date : UTC 2017-11-30 15:34:41
    00:00:00.000 : 1
    00:06:01.111 : 2
    00:11:01.286 : 3
    00:16:55.223 : 4
    00:20:12.211 : 5
    00:25:09.132 : 6
    00:29:38.276 : 7
    00:35:05.353 : 8
    00:40:24.088 : 9
    00:46:33.916 : 10
    00:51:48.355 : 11
    00:54:49.160 : 12
    00:59:21.140 : 13
    01:03:17.209 : 14
    01:09:24.284 : 15
    01:15:04.123 : 16
    01:17:20.759 : 17
    01:21:09.696 : 18
    01:27:52.306 : 19
    01:32:43.096 : 20
    Bit rate mode : VBR
    Скриншоты :


    Все одноименные релизы в Клубе


    Релиз подготовлен для просмотра наApple TV, iPad, iPhone, iPod Touch.
    Для просмотра данного релиза на компьютере с ОС Windows рекомендуется использоватьVLC media player


    В гостях у Элис/Home Again (2017) WEB-DL [720p] ATV
    загрузка...
    Рейтинг →
     (голосов: 1, оценка 3/5, голосовать можно 1 раз )

    Другие торренты по теме:

  • В гостях у Элис / Home Again (2017) WEB-DLRip [H.264 / 1080p-LQ] [MVO] [AD]
  • В гостях у Элис / Home Again (2017) WEB-DLRip [MVO] [AD]
  • В гостях у Элис / Home Again (2017) BDRip [H.264 / 1080p] [PR]
  • В гостях у Элис / Home Again (2017) WEB-DLRip
  • В гостях у Элис / Home Again (2017) WEB-DL [H.264 / 1080p-LQ]
  • В гостях у Элис / Home Again (2017) HDRip
  • В гостях у Элис / Home Again (2017) WEB-DL [1080p] ATV
  • В гостях у Элис / Home Again (2017) BDRip [H.264]


    • Комментарии (0):

      Информация

      Информация

        Посетители, находящиеся в группе Гости, не могут оставлять комментарии в данной новости.

        ↓ Меню




        ↓ Опрос

        Вы добавили сайт в закладки?
        Да
        Нет


        Top 10 за месяц (Программы)