.
Авторизация | Регистрация
Хочешь лучшие торренты? Добавь свой email!
Добавить

Торрент скачать бесплатно

» » Валериан и город тысячи планет / Valerian and the City of a Thousand Planets (2017) BDRip [576p] iPad торрент скачать бесплатно




    Валериан и город тысячи планет / Valerian and the City of a Thousand Planets (2017) BDRip [576p] iPad торрент скачать бесплатно

    Опубликовал: Админ | Дата: 30-11-2017, 05:00 | Просмотров: 0

    Год выпуска : 2017
    Производство : Франция, Китай, Германия, ОАЭ, США
    Жанр : Фантастика, фэнтези, боевик, приключения
    Продолжительность : 02: 17: 03
    Перевод : Дублированный(IPTV)
    Субтитры : Русские форсированные, Английские форсированные, Русские, Английские
    Режиссер : Люк Бессон
    Актеры : Дэйн ДеХаан, Кара Делевинь, Клайв Оуэн, Рианна, Итан Хоук, Херби Хэнкок, Крис У, Сэм Спруэлл, Ален Шаба, Рутгер Хауэр
    Мировая премьера : 17 июля 2017

    Описание : 2700 год. Валериан и Лорелин — космические спецагенты, которые по долгу службы впутались в подозрительное дело и стали невольными участниками то ли межгалактического заговора, то ли аферы причудливых поселенцев планеты Альфа, прибывших туда из различных миров со всех уголков галактик.
    Качество : BDRip 576p
    Контейнер : M4V
    Видео : H.264, 1024x432, 2.40: 1, 2 200 Kbps, 23.976 (24000/1001) fps
    Аудио 1 : Русский/Дублированный (IPTV), AAC/2.0/128 Kbps/48.0 KHz
    Аудио 2 : Английский/Оригинальная дорожка , AAC/2.0/128 Kbps/48.0 KHz
    Код: выделить все

    Sort Name: Valerian and the City of a Thousand Planets
    XID: Apple:vendor_id:2017-689960
    contentID: 1254728550
    Copyright: © 2017 Valerian SAS – TF1 Films Production
    Screenwriters: Люк Бессон, Пьер Кристин, Жан-Клод Мезьер
    Producers: Люк Бессон, Виржини Силла
    Director: Люк Бессон
    Cast: Дэйн ДеХаан, Кара Делевинь, Клайв Оуэн, Рианна Итан, Хоук Херби, Хэнкок Крис, У Сэм Спруэлл, Ален Шаба, Рутгер Хауэр
    Studio: EuropaCorp
    Rating: 4
    Long Description: 2700 год. Валериан и Лорелин - космические спецагенты, которые по долгу службы впутались в подозрительное дело и стали невольными участниками то ли межгалактического заговора, то ли аферы причудливых поселенцев планеты Альфа, прибывших туда из различных миров со всех уголков галактик.
    Description: 2700 год. Валериан и Лорелин - космические спецагенты, которые по долгу службы впутались в подозрительное дело и стали невольными участниками то ли межгалактического заговора, то ли аферы причудливых поселенцев планеты Альфа, прибывших туда из различных миров со всех уголков галактик.
    Release Date: 2017-07-17T08:00:00Z
    Genre: Sci-Fi Fantasy
    Artist: Luc Besson
    Name: Valerian and the City of a Thousand Planets
    Код: выделить все

    General
    Complete name : /Users/imac/HandBrake/Valerian.and.the.City.of.a.Thousand.Planets.(576p).(pk).m4v
    Format : MPEG-4
    Codec ID : M4V (M4V /M4A /mp42/isom)
    File size : 2.35 GiB
    Duration : 2h 17mn
    Overall bit rate mode : Variable
    Overall bit rate : 2 458 Kbps
    Movie name : Valerian and the City of a Thousand Planets
    Performer : Luc Besson
    Director : Люк Бессон
    Actor : Дэйн ДеХаан/Кара Делевинь/Клайв Оуэн/Рианна Итан/Хоук Херби/Хэнкок Крис/У Сэм Спруэлл/Ален Шаба/Рутгер Хауэр
    Screenplay by : Люк Бессон/Пьер Кристин/Жан-Клод Мезьер
    Producer : Люк Бессон/Виржини Силла
    Production studio : EuropaCorp
    Genre : Sci-Fi Fantasy
    ContentType : Short Film
    Description : 2700 год. Валериан и Лорелин - космические спецагенты, которые по долгу службы впутались в подозрительное дело и стали невольными участниками то ли межгалактического заговора, то ли аферы причудливых поселенцев планеты Альфа, прибывших туда из различных миров со всех уголков галактик.
    Recorded date : UTC 2017-07-17 08:00:00
    Encoded date : UTC 2017-11-28 22:31:43
    Tagged date : UTC 2017-11-28 22:33:12
    Copyright : © 2017 Valerian SAS – TF1 Films Production
    Cover : Yes
    Rating : None
    Title/Sort : Valerian and the City of a Thousand Planets
    LongDescription : 2700 год. Валериан и Лорелин - космические спецагенты, которые по долгу службы впутались в подозрительное дело и стали невольными участниками то ли межгалактического заговора, то ли аферы причудливых поселенцев планеты Альфа, прибывших туда из различных миров со всех уголков галактик.
    AppleStoreCatalogID : 1254728550
    Vendor : Apple:vendor_id:2017-689960
    ContentRating : mpaa|PG-13|300|
    Video #1
    ID : 1
    Format : AVC
    Format/Info : Advanced Video Codec
    Format profile :High@L3.1
    Format settings : CABAC/9 Ref Frames
    Format settings, CABAC : Yes
    Format settings, ReFrames : 9 frames
    Codec ID : avc1
    Codec ID/Info : Advanced Video Coding
    Duration : 2h 17mn
    Source duration : 2h 17mn
    Bit rate : 2 200 Kbps
    Width : 1 024 pixels
    Height : 432 pixels
    Display aspect ratio : 2.40:1
    Frame rate mode : Variable
    Frame rate : 23.976 (24000/1001) fps
    Minimum frame rate : 23.974 fps
    Maximum frame rate : 23.981 fps
    Color space : YUV
    Chroma subsampling : 4:2:0
    Bit depth : 8 bits
    Scan type : Progressive
    Bits/(Pixel*Frame) : 0.207
    Stream size : 2.10 GiB (89%)
    Source stream size : 2.10 GiB (89%)
    Title : Main Program
    Writing library : x264 core 148 r2708 86b7198
    Encoding settings : cabac=1/ref=9/deblock=1:0:0/analyse=0x3:0x113/me=umh/subme=9/psy=1/psy_rd=1.00:0.00/mixed_ref=1/me_range=32/chroma_me=1/trellis=1/8x8dct=1/cqm=0/deadzone=21, 11/fast_pskip=1/chroma_qp_offset=-2/threads=13/lookahead_threads=1/sliced_threads=0/nr=0/decimate=1/interlaced=0/bluray_compat=0/constrained_intra=0/bframes=6/b_pyramid=2/b_adapt=2/b_bias=0/direct=1/weightb=1/open_gop=0/weightp=2/keyint=240/keyint_min=24/scenecut=40/intra_refresh=0/rc_lookahead=40/rc=2pass/mbtree=1/bitrate=2200/ratetol=1.0/qcomp=0.60/qpmin=0/qpmax=69/qpstep=4/cplxblur=20.0/qblur=0.5/ip_ratio=1.40/aq=1:1.00
    Language : English
    Encoded date : UTC 2017-11-28 22:31:43
    Tagged date : UTC 2017-11-28 22:31:50
    Color range : Limited
    Color primaries : BT.709
    Transfer characteristics : BT.709
    Matrix coefficients : BT.709
    Menus : 8, 9
    Video #2
    ID : 9
    Format : JPEG
    Codec ID : jpeg
    Duration : 2h 17mn
    Bit rate mode : Variable
    Bit rate : 534 bps
    Width : 640 pixels
    Height : 270 pixels
    Display aspect ratio : 2.40:1
    Frame rate mode : Variable
    Frame rate : 0.002 fps
    Minimum frame rate : 0.001 fps
    Maximum frame rate : 0.003 fps
    Color space : YUV
    Chroma subsampling : 4:2:0
    Bit depth : 8 bits
    Compression mode : Lossy
    Bits/(Pixel*Frame) : 1.545
    Stream size : 521 KiB (0%)
    Title : Chapter Images
    Language : English
    Default : No
    Encoded date : UTC 2017-11-28 22:32:00
    Tagged date : UTC 2017-11-28 22:32:01
    Menu For : 1
    Audio #1
    ID : 2
    Format : AAC
    Format/Info : Advanced Audio Codec
    Format profile : LC
    Codec ID : mp4a-40-2
    Duration : 2h 17mn
    Source duration : 2h 17mn
    Bit rate mode : Variable
    Bit rate : 125 Kbps
    Maximum bit rate : 205 Kbps
    Channel(s) : 2 channels
    Channel positions : Front: L R
    Sampling rate : 48.0 KHz
    Frame rate : 46.875 fps (1024 SPF)
    Compression mode : Lossy
    Stream size : 123 MiB (5%)
    Source stream size : 123 MiB (5%)
    Title : Russian Stereo
    Language : Russian
    Default : Yes
    Alternate group : 1
    Encoded date : UTC 2017-11-28 22:31:43
    Tagged date : UTC 2017-11-28 22:31:56
    Subtitles : 4, 6
    Audio #2
    ID : 3
    Format : AAC
    Format/Info : Advanced Audio Codec
    Format profile : LC
    Codec ID : mp4a-40-2
    Duration : 2h 17mn
    Source duration : 2h 17mn
    Bit rate mode : Variable
    Bit rate : 126 Kbps
    Maximum bit rate : 208 Kbps
    Channel(s) : 2 channels
    Channel positions : Front: L R
    Sampling rate : 48.0 KHz
    Frame rate : 46.875 fps (1024 SPF)
    Compression mode : Lossy
    Stream size : 123 MiB (5%)
    Source stream size : 123 MiB (5%)
    Title : English Stereo
    Language : English
    Default : No
    Alternate group : 1
    Encoded date : UTC 2017-11-28 22:31:43
    Tagged date : UTC 2017-11-28 22:31:56
    Subtitles : 5, 7
    Text #1
    ID : 4
    Format : Timed Text
    Muxing mode : sbtl
    Codec ID : tx3g
    Duration : 1h 18mn
    Bit rate mode : Variable
    Bit rate : 1 bps
    Stream size : 618 Bytes (0%)
    Title : Russian forced
    Language : Russian
    Default : Yes
    Forced : Yes
    Alternate group : 2
    Encoded date : UTC 2017-11-28 22:31:43
    Tagged date : UTC 2017-11-28 22:31:43
    Subtitles For : 2
    Full Alternative : 6
    Text #2
    ID : 5
    Format : Timed Text
    Muxing mode : sbtl
    Codec ID : tx3g
    Duration : 11mn 42s
    Bit rate mode : Variable
    Bit rate : 2 bps
    Stream size : 132 Bytes (0%)
    Title : English forced
    Language : English
    Default : No
    Forced : Yes
    Alternate group : 2
    Encoded date : UTC 2017-11-28 22:31:43
    Tagged date : UTC 2017-11-28 22:31:43
    Subtitles For : 3
    Full Alternative : 7
    Text #3
    ID : 6
    Format : Timed Text
    Muxing mode : sbtl
    Codec ID : tx3g
    Duration : 2h 10mn
    Bit rate mode : Variable
    Bit rate : 91 bps
    Stream size : 86.9 KiB (0%)
    Title : Russian full
    Language : Russian
    Default : No
    Forced : No
    Alternate group : 2
    Encoded date : UTC 2017-11-28 22:31:43
    Tagged date : UTC 2017-11-28 22:31:49
    Subtitles For : 2
    Forced Alternative : 4
    Text #4
    ID : 7
    Format : Timed Text
    Muxing mode : sbtl
    Codec ID : tx3g
    Duration : 2h 12mn
    Bit rate mode : Variable
    Bit rate : 59 bps
    Stream size : 56.8 KiB (0%)
    Title : English full
    Language : English
    Default : No
    Forced : No
    Alternate group : 2
    Encoded date : UTC 2017-11-28 22:31:43
    Tagged date : UTC 2017-11-28 22:31:49
    Subtitles For : 3
    Forced Alternative : 5
    Menu #1
    00:00:00.000 : 00:00:00.000
    00:12:35.713 : 00:12:35.713
    00:17:29.590 : 00:17:29.590
    00:23:35.789 : 00:23:35.789
    00:32:45.839 : 00:32:45.839
    00:41:19.143 : 00:41:19.143
    00:47:15.666 : 00:47:15.666
    00:56:12.411 : 00:56:12.411
    01:04:25.695 : 01:04:25.695
    01:11:27.909 : 01:11:27.908
    01:20:25.070 : 01:20:25.070
    01:28:13.705 : 01:28:13.705
    01:35:53.915 : 01:35:53.915
    01:41:35.047 : 01:41:35.047
    01:53:37.978 : 01:53:37.853
    02:02:22.585 : 02:02:22.585
    Menu #2
    ID : 8
    Codec ID : text
    Duration : 2h 17mn
    Language : English
    Encoded date : UTC 2017-11-28 22:31:56
    Tagged date : UTC 2017-11-28 22:31:56
    Bit rate mode : CBR
    Menu For : 1
    00:00:00.000 : 00:00:00.000
    00:12:35.713 : 00:12:35.713
    00:17:29.590 : 00:17:29.590
    00:23:35.789 : 00:23:35.789
    00:32:45.839 : 00:32:45.839
    00:41:19.143 : 00:41:19.143
    00:47:15.666 : 00:47:15.666
    00:56:12.411 : 00:56:12.411
    01:04:25.695 : 01:04:25.695
    01:11:27.909 : 01:11:27.908
    01:20:25.070 : 01:20:25.070
    01:28:13.705 : 01:28:13.705
    01:35:53.915 : 01:35:53.915
    01:41:35.047 : 01:41:35.047
    01:53:37.978 : 01:53:37.853
    02:02:22.585 : 02:02:22.585
    Код: выделить все

    x264 [info]: frame I:2452 Avg QP:14.07 size: 77933
    x264 [info]: frame P:51904 Avg QP:17.09 size: 22615
    x264 [info]: frame B:142805 Avg QP:19.38 size: 6258
    x264 [info]: consecutive B-frames: 5.1% 4.9% 13.5% 26.4% 20.7% 24.2% 5.2%
    x264 [info]: mb I I16..4: 10.4% 65.8% 23.8%
    x264 [info]: mb P I16..4: 2.1% 10.4% 3.1% P16..4: 36.0% 25.2% 14.7% 0.0% 0.0% skip: 8.6%
    x264 [info]: mb B I16..4: 0.2% 1.1% 0.4% B16..8: 41.3% 9.6% 3.0% direct: 4.1% skip:40.5% L0:43.4% L1:44.8% BI:11.8%
    x264 [info]: 8x8 transform intra:66.1% inter:70.2%
    x264 [info]: coded y, uvDC, uvAC intra: 83.3% 85.8% 66.2% inter: 24.9% 23.9% 6.0%
    x264 [info]: i16 v, h, dc, p: 27% 16% 8% 49%
    x264 [info]: i8 v, h, dc, ddl, ddr, vr, hd, vl, hu: 8% 8% 4% 10% 15% 14% 15% 12% 14%
    x264 [info]: i4 v, h, dc, ddl, ddr, vr, hd, vl, hu: 7% 7% 3% 10% 16% 15% 16% 12% 15%
    x264 [info]: i8c dc, h, v, p: 41% 23% 18% 18%
    x264 [info]: Weighted P-Frames: Y:3.1% UV:2.0%
    x264 [info]: ref P L0: 54.8% 12.8% 13.3% 5.6% 4.1% 3.3% 2.7% 1.7% 1.5% 0.2% 0.0%
    x264 [info]: ref B L0: 79.8% 9.5% 4.6% 2.1% 1.6% 1.3% 0.9% 0.3%
    x264 [info]: ref B L1: 95.4% 4.6%
    x264 [info]: kb/s:2197.31
    Скриншоты :


    Все одноименные релизы в Клубе


    Релиз подготовлен для просмотра наApple TV, iPad, iPhone, iPod Touch.
    Для просмотра данного релиза на компьютере с ОС Windows рекомендуется использоватьVLC media player


    Валериан и город тысячи планет/Valerian and the City of a Thousand Planets (2017) BDRip [576p] iPad
    загрузка...
    Рейтинг →
     (голосов: 1, оценка 5/5, голосовать можно 1 раз )

    Другие торренты по теме:

  • Валериан и город тысячи планет / Valerian and the City of a Thousand Planets (2017) WEBRip [EN] [Тизер]
  • Валериан и город тысячи планет / Valerian and the City of a Thousand Planets (2017) TS [MVO] [AD]
  • Валериан и город тысячи планет / Valerian and the City of a Thousand Planets (2017) TS [H.264 / 720p-LQ] [AD]
  • Кристи Голден | Валериан и Город Тысячи Планет (2017) [FB2]
  • Валериан и город тысячи планет / Valerian and the City of a Thousand Planets (2017) WEBRip [H.264 / 720p-LQ] [EN / KOR Sub]
  • Валериан и город тысячи планет / Valerian and the City of a Thousand Planets (2017) WEB-DLRip [MVO] [AD]
  • Валериан и город тысячи планет / Valerian and the City of a Thousand Planets (2017) WEB-DLRip [H.264 / 1080p-LQ] [MVO] [AD]
  • Валериан и город тысячи планет / Valerian and the City of a Thousand Planets (2017) WEB-DL [H.264 / 1080p-LQ] [EN / EN Sub]


    • Комментарии (0):

      Информация

      Информация

        Посетители, находящиеся в группе Гости, не могут оставлять комментарии в данной новости.

        ↓ Меню




        ↓ Опрос

        Вы добавили сайт в закладки?
        Да
        Нет


        Top 10 за месяц (Программы)