.
Авторизация | Регистрация
Хочешь лучшие торренты? Добавь свой email!
Добавить

Торрент скачать бесплатно

» » Демон внутри / The Autopsy of Jane Doe (2016) BDRip [720p] ATV торрент скачать бесплатно




    Демон внутри / The Autopsy of Jane Doe (2016) BDRip [720p] ATV торрент скачать бесплатно

    Опубликовал: Админ | Дата: 13-11-2017, 05:00 | Просмотров: 0

    Год выпуска : 2016
    Производство : США
    Жанр : Ужасы, триллер, детектив
    Продолжительность : 01: 26: 22
    Перевод : Многоголосый закадровый(Лицензия)
    Субтитры : Русские, Английские
    Режиссер : Андре Овредал
    Актеры : Брайан Кокс, Эмиль Хирш, Офелия Ловибонд, Майкл МакЭлхаттон, Олуэн Катрин Келли, Джейн Перри, Паркер Сойерс, Мэри Дадди, Марк Феникс, Сидни
    Мировая премьера : 9 сентября 2016

    Описание : Патологоанатомы маленького городка получают тело жертвы таинственного убийства — красивой и молодой девушки без видимой причины смерти. Они пытаются выяснить, кто она и как умерла, обнаруживая все более причудливые подсказки, которые ведут к тайнам её жизни и смерти.
    Качество : BDRip 720p
    Контейнер : M4V
    Видео : H.264, 1280x544, 2.35: 1, 3 500 Kbps, 23.976 (24000/1001) fps
    Аудио 1 : Русский/Многоголосый закадровый (Лицензия), AAC/2.0/160 Kbps/48.0 KHz
    Аудио 2 : Английский/Оригинальная дорожка , AAC/2.0/160 Kbps/48.0 KHz
    Аудио 3 : Русский/Многоголосый закадровый (Лицензия), AC-3/5.1/640 Kbps/48.0 KHz
    Аудио 4 : Английский/Оригинальная дорожка , AC-3/5.1/640 Kbps/48.0 KHz
    Код: выделить все

    Sort Name: Autopsy of Jane Doe
    XID: Apple:vendor_id:2016-807313
    contentID: 1216360287
    Copyright: © 2016 Autopsy Distribution, LLC. All Rights Reserved.
    Screenwriters: Йен Б. Голдберг, Ричард Найнг
    Producers: Рори Аиткен, Фред Бергер, Эрик Гарсия
    Director: Андре Овредал
    Cast: Эмиль Хирш, Брайан Кокс, Офелия Ловибонд, Майкл МакЭлхаттон, Олуэн Катрин Келли, Паркер Сойерс, Джейн Перри, Ив О’Хара
    Studio: Lionsgate
    Rating: 125
    Long Description: Патологоанатомы маленького городка получают тело жертвы таинственного убийства - красивой и молодой Джейн Доу без видимой причины смерти. Они пытаются выяснить, кто она и как умерла, обнаруживая все более причудливые подсказки, которые ведут к тайнам её жизни и смерти.
    Description: Патологоанатомы маленького городка получают тело жертвы таинственного убийства - красивой и молодой Джейн Доу без видимой причины смерти. Они пытаются выяснить, кто она и как умерла, обнаруживая все более причудливые подсказки, которые ведут к тайнам её жизни и смерти.
    Release Date: 2016-09-09T08:00:00Z
    Genre: Horror
    Artist: André Øvredal
    Name: The Autopsy of Jane Doe
    Код: выделить все

    General
    Complete name : /Users/imac/HandBrake/The Autopsy of Jane Doe (720p HD).m4v
    Format : MPEG-4
    Codec ID : M4V (M4V /M4A /mp42/isom)
    File size : 3.07 GiB
    Duration : 1h 26mn
    Overall bit rate mode : Variable
    Overall bit rate : 5 093 Kbps
    Movie name : The Autopsy of Jane Doe
    Performer : André Øvredal
    Director : Андре Овредал
    Actor : Эмиль Хирш/Брайан Кокс/Офелия Ловибонд/Майкл МакЭлхаттон/Олуэн Катрин Келли/Паркер Сойерс/Джейн Перри/Ив О’Хара
    Screenplay by : Йен Б. Голдберг/Ричард Найнг
    Producer : Рори Аиткен/Фред Бергер/Эрик Гарсия
    Production studio : Lionsgate
    Genre : Horror
    ContentType : Short Film
    Description : Патологоанатомы маленького городка получают тело жертвы таинственного убийства - красивой и молодой Джейн Доу без видимой причины смерти. Они пытаются выяснить, кто она и как умерла, обнаруживая все более причудливые подсказки, которые ведут к тайнам её жизни и смерти.
    Recorded date : UTC 2016-09-09 08:00:00
    Encoded date : UTC 2017-11-12 11:32:37
    Tagged date : UTC 2017-11-12 11:33:42
    Copyright : © 2016 Autopsy Distribution, LLC. All Rights Reserved.
    Cover : Yes
    Rating : None
    Title/Sort : Autopsy of Jane Doe
    LongDescription : Патологоанатомы маленького городка получают тело жертвы таинственного убийства - красивой и молодой Джейн Доу без видимой причины смерти. Они пытаются выяснить, кто она и как умерла, обнаруживая все более причудливые подсказки, которые ведут к тайнам её жизни и смерти.
    HDVideo : Yes
    AppleStoreCatalogID : 1216360287
    Vendor : Apple:vendor_id:2016-807313
    ContentRating : uk-movie|15|350|
    Video #1
    ID : 1
    Format : AVC
    Format/Info : Advanced Video Codec
    Format profile :High@L3.1
    Format settings : 3 Ref Frames
    Format settings, CABAC : No
    Format settings, ReFrames : 3 frames
    Codec ID : avc1
    Codec ID/Info : Advanced Video Coding
    Duration : 1h 26mn
    Source duration : 1h 26mn
    Bit rate : 3 500 Kbps
    Width : 1 280 pixels
    Height : 544 pixels
    Display aspect ratio : 2.35:1
    Frame rate mode : Variable
    Frame rate : 23.976 (24000/1001) fps
    Minimum frame rate : 23.974 fps
    Maximum frame rate : 23.981 fps
    Color space : YUV
    Chroma subsampling : 4:2:0
    Bit depth : 8 bits
    Scan type : Progressive
    Bits/(Pixel*Frame) : 0.210
    Stream size : 2.10 GiB (68%)
    Source stream size : 2.10 GiB (68%)
    Title : Main Program
    Writing library : x264 core 148 r2708 86b7198
    Encoding settings : cabac=0/ref=3/deblock=1:-3:-3/analyse=0x3:0x113/me=umh/subme=9/psy=1/psy_rd=1.00:0.15/mixed_ref=1/me_range=32/chroma_me=1/trellis=0/8x8dct=1/cqm=0/deadzone=21, 11/fast_pskip=0/chroma_qp_offset=-2/threads=17/lookahead_threads=1/sliced_threads=0/nr=0/decimate=0/interlaced=0/bluray_compat=0/constrained_intra=0/bframes=3/b_pyramid=0/b_adapt=2/b_bias=0/direct=1/weightb=0/open_gop=0/weightp=0/keyint=240/keyint_min=24/scenecut=40/intra_refresh=0/rc_lookahead=40/rc=2pass/mbtree=1/bitrate=3500/ratetol=1.0/qcomp=0.65/qpmin=0/qpmax=69/qpstep=4/cplxblur=20.0/qblur=0.5/vbv_maxrate=9500/vbv_bufsize=9500/nal_hrd=none/filler=0/ip_ratio=1.40/aq=1:1.10
    Language : English
    Encoded date : UTC 2017-11-12 11:32:37
    Tagged date : UTC 2017-11-12 11:32:43
    Color range : Limited
    Color primaries : BT.709
    Transfer characteristics : BT.709
    Matrix coefficients : BT.709
    Menus : 8, 9
    Video #2
    ID : 9
    Format : JPEG
    Codec ID : jpeg
    Duration : 1h 26mn
    Bit rate mode : Variable
    Bit rate : 385 bps
    Width : 640 pixels
    Height : 272 pixels
    Display aspect ratio : 2.35:1
    Frame rate mode : Variable
    Frame rate : 0.002 fps
    Minimum frame rate : 0.002 fps
    Maximum frame rate : 0.009 fps
    Color space : YUV
    Chroma subsampling : 4:2:0
    Bit depth : 8 bits
    Compression mode : Lossy
    Bits/(Pixel*Frame) : 1.106
    Stream size : 282 KiB (0%)
    Title : Chapter Images
    Language : English
    Default : No
    Encoded date : UTC 2017-11-12 11:32:48
    Tagged date : UTC 2017-11-12 11:32:48
    Menu For : 1
    Audio #1
    ID : 2
    Format : AAC
    Format/Info : Advanced Audio Codec
    Format profile : LC
    Codec ID : mp4a-40-2
    Duration : 1h 26mn
    Bit rate mode : Variable
    Bit rate : 158 Kbps
    Maximum bit rate : 269 Kbps
    Channel(s) : 2 channels
    Channel positions : Front: L R
    Sampling rate : 48.0 KHz
    Frame rate : 46.875 fps (1024 SPF)
    Compression mode : Lossy
    Stream size : 97.7 MiB (3%)
    Title : Russian Stereo
    Language : Russian
    Default : Yes
    Alternate group : 1
    Encoded date : UTC 2017-11-12 11:32:37
    Tagged date : UTC 2017-11-12 11:32:45
    Fallback From : 4
    Audio #2
    ID : 3
    Format : AAC
    Format/Info : Advanced Audio Codec
    Format profile : LC
    Codec ID : mp4a-40-2
    Duration : 1h 26mn
    Bit rate mode : Variable
    Bit rate : 159 Kbps
    Maximum bit rate : 245 Kbps
    Channel(s) : 2 channels
    Channel positions : Front: L R
    Sampling rate : 48.0 KHz
    Frame rate : 46.875 fps (1024 SPF)
    Compression mode : Lossy
    Stream size : 97.9 MiB (3%)
    Title : English Stereo
    Language : English
    Default : No
    Alternate group : 1
    Encoded date : UTC 2017-11-12 11:32:37
    Tagged date : UTC 2017-11-12 11:32:45
    Fallback From : 5
    Audio #3
    ID : 4
    Format : AC-3
    Format/Info : Audio Coding 3
    Format settings, Endianness : Big
    Codec ID : ac-3
    Duration : 1h 26mn
    Bit rate mode : Constant
    Bit rate : 640 Kbps
    Channel(s) : 6 channels
    Channel positions : Front: L C R, Side: L R, LFE
    Sampling rate : 48.0 KHz
    Frame rate : 31.250 fps (1536 SPF)
    Bit depth : 16 bits
    Compression mode : Lossy
    Stream size : 395 MiB (13%)
    Title : Russian DD 5.1
    Language : Russian
    Service kind : Complete Main
    Default : Inherited From: 2
    Alternate group : 1
    Encoded date : UTC 2017-11-12 11:32:37
    Tagged date : UTC 2017-11-12 11:32:44
    Fallback To : 2
    Audio #4
    ID : 5
    Format : AC-3
    Format/Info : Audio Coding 3
    Format settings, Endianness : Big
    Codec ID : ac-3
    Duration : 1h 26mn
    Bit rate mode : Constant
    Bit rate : 640 Kbps
    Channel(s) : 6 channels
    Channel positions : Front: L C R, Side: L R, LFE
    Sampling rate : 48.0 KHz
    Frame rate : 31.250 fps (1536 SPF)
    Bit depth : 16 bits
    Compression mode : Lossy
    Stream size : 395 MiB (13%)
    Title : English DD 5.1
    Language : English
    Service kind : Complete Main
    Default : No
    Alternate group : 1
    Encoded date : UTC 2017-11-12 11:32:37
    Tagged date : UTC 2017-11-12 11:32:44
    Fallback To : 3
    Text #1
    ID : 6
    Format : Timed Text
    Muxing mode : sbtl
    Codec ID : tx3g
    Duration : 1h 20mn
    Bit rate mode : Variable
    Bit rate : 50 bps
    Stream size : 29.9 KiB (0%)
    Title : Russian full
    Language : Russian
    Default : Yes
    Forced : No
    Alternate group : 2
    Encoded date : UTC 2017-11-12 11:32:37
    Tagged date : UTC 2017-11-12 11:32:37
    Text #2
    ID : 7
    Format : Timed Text
    Muxing mode : sbtl
    Codec ID : tx3g
    Duration : 1h 20mn
    Bit rate mode : Variable
    Bit rate : 35 bps
    Stream size : 21.0 KiB (0%)
    Title : English full
    Language : English
    Default : No
    Forced : No
    Alternate group : 2
    Encoded date : UTC 2017-11-12 11:32:37
    Tagged date : UTC 2017-11-12 11:32:37
    Menu #1
    00:00:00.000 : 00:00:00.000
    00:08:38.601 : 00:08:38.601
    00:17:04.649 : 00:17:04.607
    00:26:38.055 : 00:26:37.971
    00:36:47.747 : 00:36:47.706
    00:45:33.898 : 00:45:33.898
    00:53:16.819 : 00:53:16.819
    01:00:45.642 : 01:00:45.600
    01:06:12.719 : 01:06:12.635
    01:10:49.787 : 01:10:49.746
    01:16:26.499 : 01:16:26.499
    01:18:22.489 : 01:18:22.448
    Menu #2
    ID : 8
    Codec ID : text
    Duration : 1h 26mn
    Language : English
    Encoded date : UTC 2017-11-12 11:32:45
    Tagged date : UTC 2017-11-12 11:32:45
    Bit rate mode : CBR
    Menu For : 1
    00:00:00.000 : 00:00:00.000
    00:08:38.601 : 00:08:38.601
    00:17:04.649 : 00:17:04.607
    00:26:38.055 : 00:26:37.971
    00:36:47.747 : 00:36:47.706
    00:45:33.898 : 00:45:33.898
    00:53:16.819 : 00:53:16.819
    01:00:45.642 : 01:00:45.600
    01:06:12.719 : 01:06:12.635
    01:10:49.787 : 01:10:49.746
    01:16:26.499 : 01:16:26.499
    01:18:22.489 : 01:18:22.448
    Код: выделить все

    x264 [info]: frame I:1553 Avg QP:10.62 size: 95992
    x264 [info]: frame P:41731 Avg QP:13.04 size: 33208
    x264 [info]: frame B:80967 Avg QP:14.03 size: 8943
    x264 [info]: consecutive B-frames: 3.1% 15.7% 42.9% 38.3%
    x264 [info]: mb I I16..4: 12.2% 64.9% 22.9%
    x264 [info]: mb P I16..4: 2.3% 7.2% 1.7% P16..4: 39.3% 28.1% 11.7% 0.0% 0.0% skip: 9.7%
    x264 [info]: mb B I16..4: 0.2% 0.6% 0.1% B16..8: 38.5% 14.8% 2.4% direct: 5.1% skip:38.3% L0:41.6% L1:49.0% BI: 9.4%
    x264 [info]: 8x8 transform intra:64.4% inter:39.0%
    x264 [info]: coded y, uvDC, uvAC intra: 85.7% 68.2% 56.5% inter: 27.6% 16.8% 10.7%
    x264 [info]: i16 v, h, dc, p: 58% 10% 10% 22%
    x264 [info]: i8 v, h, dc, ddl, ddr, vr, hd, vl, hu: 9% 8% 16% 10% 12% 12% 12% 11% 11%
    x264 [info]: i4 v, h, dc, ddl, ddr, vr, hd, vl, hu: 9% 8% 6% 12% 17% 15% 13% 11% 9%
    x264 [info]: i8c dc, h, v, p: 61% 15% 17% 8%
    x264 [info]: ref P L0: 66.6% 19.6% 13.8%
    x264 [info]: ref B L0: 76.2% 23.8%
    x264 [info]: kb/s:3487.27
    Скриншоты :


    Все одноименные релизы в Клубе


    Релиз подготовлен для просмотра наApple TV, iPad, iPhone, iPod Touch.
    Для просмотра данного релиза на компьютере с ОС Windows рекомендуется использоватьVLC media player


    Демон внутри/The Autopsy of Jane Doe (2016) BDRip [720p] ATV
    загрузка...
    Рейтинг →
     (голосов: 1, оценка 3/5, голосовать можно 1 раз )

    Другие торренты по теме:

  • Демон внутри / The Autopsy of Jane Doe (2016) WEB-DL [H.264 / 1080p-LQ] [EN / EN Sub]
  • Демон внутри / Вскрытие Джейн Доу / The Autopsy of Jane Doe (2016) WEB-DLRip [H.264] AlexFilm [MP4|1024x424]
  • Демон внутри / The Autopsy of Jane Doe (2016) WEB-DLRip [звук с TS]
  • Демон внутри / The Autopsy of Jane Doe (2016) WEB-DLRip [H.264 / 1080p-LQ] [звук с TS]
  • Демон внутри / The Autopsy of Jane Doe (2016) HDRip
  • Демон внутри / The Autopsy Of Jane Doe (2016) BDRemux [H.264 / 1080p]
  • Демон внутри / The Autopsy of Jane Doe (2016) BDRemux [H.264 / 1080p] [EN]
  • Демон внутри / The Autopsy Of Jane Doe (2016) BDRip [H.264 / 720p]


    • Комментарии (0):

      Информация

      Информация

        Посетители, находящиеся в группе Гости, не могут оставлять комментарии в данной новости.

        ↓ Меню




        ↓ Опрос

        Вы добавили сайт в закладки?
        Да
        Нет


        Top 10 за месяц (Программы)