.
Авторизация | Регистрация
Хочешь лучшие торренты? Добавь свой email!
Добавить

Торрент скачать бесплатно

» » Ужас Амитивилля: Пробуждение / Amityville: The Awakening (2017) WEB-DLRip [576p] iPad торрент скачать бесплатно




    Ужас Амитивилля: Пробуждение / Amityville: The Awakening (2017) WEB-DLRip [576p] iPad торрент скачать бесплатно

    Опубликовал: Админ | Дата: 13-11-2017, 05:00 | Просмотров: 0

    Год выпуска : 2017
    Производство : США
    Жанр : Ужасы, триллер
    Продолжительность : 01: 27: 20
    Перевод : Дублированный(iTunes)
    Субтитры : Английские
    Режиссер : Франк Халфун
    Актеры : Дженнифер Джейсон Ли, Белла Торн, Камерон Монахэн, Томас Манн, Дженнифер Моррисон, Кертвуд Смит, МакКенна Грейс, Тейлор Спрейтлер, Ава Сантана, Хантер Голигоски
    Мировая премьера : 10 марта 2017

    Описание : Мать-одиночка переезжает с тремя детьми в загадочный дом, даже не подозревая о кровавом прошлом их нового жилища. У каждого дома есть история. У этого — страшная тайна.
    Качество : WEB-DLRip 576p
    Контейнер : M4V
    Видео : H.264, 1024x432, 2.40: 1, 2 200 Kbps, 23.976 fps
    Аудио 1 : Русский/Дублированный (iTunes), AAC/2.0/128 Kbps/48.0 KHz
    Аудио 2 : Английский/Оригинальная дорожка , AAC/2.0/128 Kbps/48.0 KHz
    Код: выделить все

    Sort Name: Amityville: The Awakening
    XID: Apple:vendor_id:2017-586708
    contentID: 1293626794
    Screenwriters: Франк Халфун
    Producers: Джейсон Блум, Дэниэл Фаррандс, Кэйси Ла Скала
    Director: Франк Халфун
    Cast: Дженнифер Джейсон Ли, Белла Торн Камерон Монахэн, Томас Манн, Дженнифер Моррисон, Кертвуд Смит, МакКенна Грейс, Тейлор Спрейтлер, Ава Сантана, Хантер Голигоски
    Studio: Lionsgate
    Rating Annotation: Rated PG-13 strong horror violence and for language.
    Rating: 4
    Long Description: Мать-одиночка переезжает с тремя детьми в загадочный дом, даже не подозревая о кровавом прошлом их нового жилища. У каждого дома есть история. У этого - страшная тайна.
    Description: Мать-одиночка переезжает с тремя детьми в загадочный дом, даже не подозревая о кровавом прошлом их нового жилища. У каждого дома есть история. У этого - страшная тайна.
    Release Date: 2017-03-10T08:00:00Z
    Genre: Horror
    Artist: Franck Khalfoun
    Name: Amityville: The Awakening
    Код: выделить все

    General
    Complete name : /Users/imac/HandBrake/Amityville.The.Awakening.(SD).(pk).m4v
    Format : MPEG-4
    Codec ID : M4V
    File size : 1.50 GiB
    Duration : 1h 27mn
    Overall bit rate mode : Variable
    Overall bit rate : 2 457 Kbps
    Movie name : Amityville: The Awakening
    Performer : Franck Khalfoun
    Director : Франк Халфун
    Actor : Дженнифер Джейсон Ли/Белла Торн Камерон Монахэн/Томас Манн/Дженнифер Моррисон/Кертвуд Смит/МакКенна Грейс/Тейлор Спрейтлер/Ава Сантана/Хантер Голигоски
    Screenplay by : Франк Халфун
    Producer : Джейсон Блум/Дэниэл Фаррандс/Кэйси Ла Скала
    Production studio : Lionsgate
    Genre : Horror
    ContentType : Short Film
    Description : Мать-одиночка переезжает с тремя детьми в загадочный дом, даже не подозревая о кровавом прошлом их нового жилища. У каждого дома есть история. У этого - страшная тайна.
    Recorded date : UTC 2017-03-10 08:00:00
    Encoded date : UTC 2017-11-12 10:32:49
    Tagged date : UTC 2017-11-12 10:33:23
    Cover : Yes
    Rating : None
    Title/Sort : Amityville: The Awakening
    LongDescription : Мать-одиночка переезжает с тремя детьми в загадочный дом, даже не подозревая о кровавом прошлом их нового жилища. У каждого дома есть история. У этого - страшная тайна.
    AppleStoreCatalogID : 1293626794
    Vendor : Apple:vendor_id:2017-586708
    ContentRating : mpaa|PG-13|300|Rated PG-13 strong horror violence and for language.
    Video #1
    ID : 1
    Format : AVC
    Format/Info : Advanced Video Codec
    Format profile :High@L3.1
    Format settings, CABAC : Yes
    Format settings, ReFrames : 9 frames
    Codec ID : avc1
    Codec ID/Info : Advanced Video Coding
    Duration : 1h 27mn
    Source duration : 1h 27mn
    Bit rate : 2 200 Kbps
    Width : 1 024 pixels
    Height : 432 pixels
    Display aspect ratio : 2.40:1
    Frame rate mode : Variable
    Frame rate : 23.976 fps
    Minimum frame rate : 23.974 fps
    Maximum frame rate : 23.981 fps
    Color space : YUV
    Chroma subsampling : 4:2:0
    Bit depth : 8 bits
    Scan type : Progressive
    Bits/(Pixel*Frame) : 0.207
    Stream size : 1.34 GiB (90%)
    Source stream size : 1.34 GiB (90%)
    Title : Main Program
    Writing library : x264 core 148 r2708 86b7198
    Encoding settings : cabac=1/ref=9/deblock=1:0:0/analyse=0x3:0x113/me=umh/subme=9/psy=1/psy_rd=1.00:0.00/mixed_ref=1/me_range=32/chroma_me=1/trellis=1/8x8dct=1/cqm=0/deadzone=21, 11/fast_pskip=1/chroma_qp_offset=-2/threads=13/lookahead_threads=1/sliced_threads=0/nr=0/decimate=1/interlaced=0/bluray_compat=0/constrained_intra=0/bframes=6/b_pyramid=2/b_adapt=2/b_bias=0/direct=1/weightb=1/open_gop=0/weightp=2/keyint=240/keyint_min=24/scenecut=40/intra_refresh=0/rc_lookahead=40/rc=2pass/mbtree=1/bitrate=2200/ratetol=1.0/qcomp=0.60/qpmin=0/qpmax=69/qpstep=4/cplxblur=20.0/qblur=0.5/ip_ratio=1.40/aq=1:1.00
    Language : English
    Encoded date : UTC 2017-11-12 10:32:49
    Tagged date : UTC 2017-11-12 10:32:52
    Color range : Limited
    Color primaries : BT.709
    Transfer characteristics : BT.709
    Matrix coefficients : BT.709
    Video #2
    ID : 6
    Format : JPEG
    Codec ID : jpeg
    Duration : 1h 27mn
    Bit rate mode : Variable
    Bit rate : 168 bps
    Width : 640 pixels
    Height : 270 pixels
    Display aspect ratio : 2.40:1
    Frame rate mode : Constant
    Frame rate : 0.001 fps
    Color space : YUV
    Chroma subsampling : 4:2:0
    Bit depth : 8 bits
    Compression mode : Lossy
    Bits/(Pixel*Frame) : 0.972
    Stream size : 185 KiB (0%)
    Title : Chapter Images
    Language : English
    Encoded date : UTC 2017-11-12 10:32:56
    Tagged date : UTC 2017-11-12 10:32:56
    Audio #1
    ID : 2
    Format : AAC
    Format/Info : Advanced Audio Codec
    Format profile : LC
    Codec ID : 40
    Duration : 1h 27mn
    Bit rate mode : Variable
    Bit rate : 125 Kbps
    Maximum bit rate : 189 Kbps
    Channel(s) : 2 channels
    Channel positions : Front: L R
    Sampling rate : 48.0 KHz
    Compression mode : Lossy
    Stream size : 78.3 MiB (5%)
    Title : Russian Stereo
    Language : Russian
    Encoded date : UTC 2017-11-12 10:32:49
    Tagged date : UTC 2017-11-12 10:32:54
    Audio #2
    ID : 3
    Format : AAC
    Format/Info : Advanced Audio Codec
    Format profile : LC
    Codec ID : 40
    Duration : 1h 27mn
    Bit rate mode : Variable
    Bit rate : 123 Kbps
    Maximum bit rate : 201 Kbps
    Channel(s) : 2 channels
    Channel positions : Front: L R
    Sampling rate : 48.0 KHz
    Compression mode : Lossy
    Stream size : 77.1 MiB (5%)
    Title : English Stereo
    Language : English
    Encoded date : UTC 2017-11-12 10:32:49
    Tagged date : UTC 2017-11-12 10:32:55
    Text
    ID : 4
    Format : Timed Text
    Muxing mode : sbtl
    Codec ID : tx3g
    Duration : 1h 22mn
    Bit rate mode : Variable
    Bit rate : 45 bps
    Stream size : 27.5 KiB (0%)
    Title : English full
    Language : English
    Encoded date : UTC 2017-11-12 10:32:49
    Tagged date : UTC 2017-11-12 10:32:50
    Menu #1
    00:00:00.000 : 1
    00:09:27.000 : 2
    00:19:44.000 : 3
    00:28:20.000 : 4
    00:36:35.000 : 5
    00:47:52.000 : 6
    00:58:57.000 : 7
    01:06:56.000 : 8
    01:16:29.000 : 9
    Menu #2
    ID : 5
    Codec ID : text
    Duration : 1h 27mn
    Language : English
    Encoded date : UTC 2017-11-12 10:32:55
    Tagged date : UTC 2017-11-12 10:32:55
    Bit rate mode : CBR
    00:00:00.000 : 1
    00:09:27.000 : 2
    00:19:44.000 : 3
    00:28:20.000 : 4
    00:36:35.000 : 5
    00:47:52.000 : 6
    00:58:57.000 : 7
    01:06:56.000 : 8
    01:16:29.000 : 9
    Код: выделить все

    x264 [info]: frame I:1166 Avg QP: 7.90 size: 71651
    x264 [info]: frame P:30071 Avg QP:10.89 size: 23331
    x264 [info]: frame B:94403 Avg QP:13.12 size: 6946
    x264 [info]: consecutive B-frames: 1.5% 3.0% 5.5% 57.6% 9.9% 19.1% 3.5%
    x264 [info]: mb I I16..4: 14.1% 65.5% 20.4%
    x264 [info]: mb P I16..4: 1.8% 8.3% 1.3% P16..4: 27.8% 27.4% 20.6% 0.0% 0.0% skip:12.8%
    x264 [info]: mb B I16..4: 0.2% 0.8% 0.1% B16..8: 30.3% 15.1% 4.9% direct: 6.4% skip:42.2% L0:44.9% L1:41.6% BI:13.5%
    x264 [info]: 8x8 transform intra:71.4% inter:56.4%
    x264 [info]: coded y, uvDC, uvAC intra: 84.3% 80.3% 71.9% inter: 30.3% 20.1% 6.6%
    x264 [info]: i16 v, h, dc, p: 60% 11% 9% 20%
    x264 [info]: i8 v, h, dc, ddl, ddr, vr, hd, vl, hu: 16% 9% 14% 8% 10% 11% 9% 12% 11%
    x264 [info]: i4 v, h, dc, ddl, ddr, vr, hd, vl, hu: 13% 9% 7% 9% 14% 14% 11% 12% 12%
    x264 [info]: i8c dc, h, v, p: 58% 18% 15% 8%
    x264 [info]: Weighted P-Frames: Y:1.3% UV:0.6%
    x264 [info]: ref P L0: 53.3% 5.3% 17.5% 7.2% 5.5% 4.2% 3.3% 1.8% 1.7% 0.0% 0.0%
    x264 [info]: ref B L0: 74.2% 12.6% 5.8% 2.7% 1.9% 1.5% 0.9% 0.3%
    x264 [info]: ref B L1: 94.8% 5.2%
    x264 [info]: kb/s:2199.66
    Скриншоты :


    Все одноименные релизы в Клубе


    Релиз подготовлен для просмотра наApple TV, iPad, iPhone, iPod Touch.
    Для просмотра данного релиза на компьютере с ОС Windows рекомендуется использоватьVLC media player


    Ужас Амитивилля: Пробуждение/Amityville: The Awakening (2017) WEB-DLRip [576p] iPad
    загрузка...
    Рейтинг →
     (голосов: 1, оценка 4/5, голосовать можно 1 раз )

    Другие торренты по теме:



      Комментарии (0):

      Информация

      Информация

        Посетители, находящиеся в группе Гости, не могут оставлять комментарии в данной новости.

        ↓ Меню




        ↓ Опрос

        Вы добавили сайт в закладки?
        Да
        Нет


        Top 10 за месяц (Программы)