.
Авторизация | Регистрация
Хочешь лучшие торренты? Добавь свой email!
Добавить

Торрент скачать бесплатно

» » Малыш на драйве / Baby Driver (2017) BDRip [1080p] ATV торрент скачать бесплатно




    Малыш на драйве / Baby Driver (2017) BDRip [1080p] ATV торрент скачать бесплатно

    Опубликовал: Админ | Дата: 8-10-2017, 05:00 | Просмотров: 0

    Год выпуска : 2017
    Производство : США, Великобритания
    Жанр : Боевик, триллер, криминал
    Продолжительность : 01: 52: 39
    Перевод : Дублированный(iTunes)
    Субтитры : Русские форсированные, Русские, Английские
    Режиссер : Эдгар Райт
    Актеры : Лили Джеймс, Кевин Спейси, Джон Бернтал, Джон Хэмм, Джейми Фокс, Эйса Гонсалес, Энсел Элгорт, Фли, Скай Феррейра, Р. Маркус Тейлор, Джефф Чейз
    Мировая премьера : 16 марта 2017

    Описание : Молодой парень по прозвищу Малыш обожает стильную музыку, быструю езду и адреналин в крови. Вся его жизнь — это сплошные погони и перестрелки, ведь он работает водителем, который помогает бандитам скрыться с места преступления. Однажды он по-настоящему влюбляется и решает выйти из игры, но сначала ему предстоит выполнить еще одно задание, которое вполне может оказаться последним в его жизни.
    Качество : BDRip 1080p
    Контейнер : M4V
    Видео : H.264, 1920x800, 2.40: 1, 8 000 Kbps, 23.976 (24000/1001) fps
    Аудио 1 : Русский/Дублированный (iTunes), AAC/2.0/160 Kbps/48.0 KHz
    Аудио 2 : Английский/Оригинальная дорожка , AAC/2.0/160 Kbps/48.0 KHz
    Аудио 3 : Русский/Дублированный (iTunes), AC-3/5.1/384 Kbps/48.0 KHz
    Аудио 4 : Английский/Оригинальная дорожка , AC-3/5.1/640 Kbps/48.0 KHz
    Код: выделить все

    Sort Name: Baby Driver
    XID: Apple:vendor_id:2017-902939
    contentID: 1239575681
    Copyright: © 2017 Big Talk Productions
    Screenwriters: Эдгар Райт
    Producers: Тим Беван, Джеймс Биддл, Лиза Чейсин
    Director: Эдгар Райт
    Cast: Энсел Элгорт, Джон Бернтал, Джон Хэмм, Эйса Гонсалес, Micah Howard, Лили Джеймс, Морган Браун, Кевин Спейси, Morse Diggs, С.Дж. Джонс
    Studio: Big Talk Productions
    Rating: 5
    Long Description: Молодой парень по прозвищу Малыш обожает стильную музыку, быструю езду и адреналин в крови. Вся его жизнь - это сплошные погони и перестрелки, ведь он работает водителем, который помогает бандитам скрыться с места преступления. Однажды он по-настоящему влюбляется и решает выйти из игры, но сначала ему предстоит выполнить еще одно задание, которое вполне может оказаться последним в его жизни.
    Description: Молодой парень по прозвищу Малыш обожает стильную музыку, быструю езду и адреналин в крови. Вся его жизнь - это сплошные погони и перестрелки, ведь он работает водителем, который помогает бандитам скрыться с места преступления. Однажды он по-настоящему влюбляется и решает выйти из игры, но сначала ему предстоит выполнить еще одно задание, которое вполне может оказаться последним в его жизни.
    Release Date: 2017-03-11T08:00:00Z
    Genre: Action Adventure
    Artist: Edgar Wright
    Name: Baby Driver
    Код: выделить все

    General
    Complete name : /Users/imac/HandBrake/Baby Driver (1080p HD).m4v
    Format : MPEG-4
    Codec ID : M4V (M4V /M4A /mp42/isom)
    File size : 7.35 GiB
    Duration : 1h 52mn
    Overall bit rate mode : Variable
    Overall bit rate : 9 344 Kbps
    Movie name : Baby Driver
    Performer : Edgar Wright
    Director : Эдгар Райт
    Actor : Энсел Элгорт/Джон Бернтал/Джон Хэмм/Эйса Гонсалес/Micah Howard/Лили Джеймс/Морган Браун/Кевин Спейси/Morse Diggs/С.Дж. Джонс
    Screenplay by : Эдгар Райт
    Producer : Тим Беван/Джеймс Биддл/Лиза Чейсин
    Production studio : Big Talk Productions
    Genre : Action Adventure
    ContentType : Short Film
    Description : Молодой парень по прозвищу Малыш обожает стильную музыку, быструю езду и адреналин в крови. Вся его жизнь - это сплошные погони и перестрелки, ведь он работает водителем, который помогает бандитам скрыться с места преступления. Однажды он по-настоящему влюбляется и решает выйти из игры, но сначала ему предстоит выполнить еще одно задание, которое вполне может оказаться последним в его жизни.
    Recorded date : UTC 2017-03-11 08:00:00
    Encoded date : UTC 2017-10-07 09:11:29
    Tagged date : UTC 2017-10-07 09:25:55
    Copyright : © 2017 Big Talk Productions
    Cover : Yes
    Rating : None
    Title/Sort : Baby Driver
    LongDescription : Молодой парень по прозвищу Малыш обожает стильную музыку, быструю езду и адреналин в крови. Вся его жизнь - это сплошные погони и перестрелки, ведь он работает водителем, который помогает бандитам скрыться с места преступления. Однажды он по-настоящему влюбляется и решает выйти из игры, но сначала ему предстоит выполнить еще одно задание, которое вполне может оказаться последним в его жизни.
    AppleStoreCatalogID : 1239575681
    Vendor : Apple:vendor_id:2017-902939
    ContentRating : mpaa|R|400|
    Video #1
    ID : 1
    Format : AVC
    Format/Info : Advanced Video Codec
    Format profile : High@L4
    Format settings : CABAC/4 Ref Frames
    Format settings, CABAC : Yes
    Format settings, ReFrames : 4 frames
    Codec ID : avc1
    Codec ID/Info : Advanced Video Coding
    Duration : 1h 52mn
    Source duration : 1h 52mn
    Bit rate : 8 000 Kbps
    Width : 1 920 pixels
    Height : 800 pixels
    Display aspect ratio : 2.40:1
    Frame rate mode : Variable
    Frame rate : 23.976 (24000/1001) fps
    Minimum frame rate : 23.974 fps
    Maximum frame rate : 23.981 fps
    Color space : YUV
    Chroma subsampling : 4:2:0
    Bit depth : 8 bits
    Scan type : Progressive
    Bits/(Pixel*Frame) : 0.217
    Stream size : 6.29 GiB (86%)
    Source stream size : 6.29 GiB (86%)
    Title : Main Program
    Writing library : x264 core 148 r2708 86b7198
    Encoding settings : cabac=1/ref=4/deblock=1:-2:-2/analyse=0x3:0x133/me=umh/subme=10/psy=1/psy_rd=1.00:0.15/mixed_ref=1/me_range=32/chroma_me=1/trellis=2/8x8dct=1/cqm=0/deadzone=21, 11/fast_pskip=1/chroma_qp_offset=-3/threads=25/lookahead_threads=6/sliced_threads=0/nr=0/decimate=0/interlaced=0/bluray_compat=0/constrained_intra=0/bframes=16/b_pyramid=2/b_adapt=2/b_bias=0/direct=3/weightb=1/open_gop=0/weightp=2/keyint=240/keyint_min=24/scenecut=40/intra_refresh=0/rc_lookahead=40/rc=2pass/mbtree=1/bitrate=8000/ratetol=1.0/qcomp=0.70/qpmin=0/qpmax=69/qpstep=4/cplxblur=20.0/qblur=0.5/ip_ratio=1.40/aq=1:1.00
    Language : English
    Encoded date : UTC 2017-10-07 09:11:30
    Tagged date : UTC 2017-10-07 09:11:52
    Color range : Limited
    Color primaries : BT.709
    Transfer characteristics : BT.709
    Matrix coefficients : BT.709
    Menus : 9, 10
    Video #2
    ID : 10
    Format : JPEG
    Codec ID : jpeg
    Duration : 1h 52mn
    Bit rate mode : Variable
    Bit rate : 706 bps
    Width : 640 pixels
    Height : 266 pixels
    Display aspect ratio : 2.40:1
    Frame rate mode : Variable
    Frame rate : 0.002 fps
    Minimum frame rate : 0.001 fps
    Maximum frame rate : 0.004 fps
    Color space : YUV
    Chroma subsampling : 4:2:0
    Bit depth : 8 bits
    Compression mode : Lossy
    Bits/(Pixel*Frame) : 2.074
    Stream size : 689 KiB (0%)
    Title : Chapter Images
    Language : English
    Default : No
    Encoded date : UTC 2017-10-07 09:12:54
    Tagged date : UTC 2017-10-07 09:12:54
    Menu For : 1
    Audio #1
    ID : 2
    Format : AAC
    Format/Info : Advanced Audio Codec
    Format profile : LC
    Codec ID : mp4a-40-2
    Duration : 1h 52mn
    Bit rate mode : Variable
    Bit rate : 158 Kbps
    Maximum bit rate : 253 Kbps
    Channel(s) : 2 channels
    Channel positions : Front: L R
    Sampling rate : 48.0 KHz
    Frame rate : 46.875 fps (1024 SPF)
    Compression mode : Lossy
    Stream size : 127 MiB (2%)
    Title : Russian Stereo
    Language : Russian
    Default : Yes
    Alternate group : 1
    Encoded date : UTC 2017-10-07 09:11:29
    Tagged date : UTC 2017-10-07 09:11:53
    Fallback From : 4
    Subtitles : 6, 7
    Menus : 9
    Audio #2
    ID : 3
    Format : AAC
    Format/Info : Advanced Audio Codec
    Format profile : LC
    Codec ID : mp4a-40-2
    Duration : 1h 52mn
    Bit rate mode : Variable
    Bit rate : 158 Kbps
    Maximum bit rate : 265 Kbps
    Channel(s) : 2 channels
    Channel positions : Front: L R
    Sampling rate : 48.0 KHz
    Frame rate : 46.875 fps (1024 SPF)
    Compression mode : Lossy
    Stream size : 127 MiB (2%)
    Title : English Stereo
    Language : English
    Default : No
    Alternate group : 1
    Encoded date : UTC 2017-10-07 09:11:30
    Tagged date : UTC 2017-10-07 09:11:54
    Fallback From : 5
    Audio #3
    ID : 4
    Format : AC-3
    Format/Info : Audio Coding 3
    Format settings, Endianness : Big
    Codec ID : ac-3
    Duration : 1h 52mn
    Bit rate mode : Constant
    Bit rate : 384 Kbps
    Channel(s) : 6 channels
    Channel positions : Front: L C R, Side: L R, LFE
    Sampling rate : 48.0 KHz
    Frame rate : 31.250 fps (1536 SPF)
    Bit depth : 16 bits
    Compression mode : Lossy
    Stream size : 309 MiB (4%)
    Title : Russian DD 5.1
    Language : Russian
    Service kind : Complete Main
    Default : Inherited From: 2
    Alternate group : 1
    Encoded date : UTC 2017-10-07 09:11:30
    Tagged date : UTC 2017-10-07 09:12:47
    Fallback To : 2
    Subtitles : 6, 7
    Audio #4
    ID : 5
    Format : AC-3
    Format/Info : Audio Coding 3
    Format settings, Endianness : Big
    Codec ID : ac-3
    Duration : 1h 52mn
    Bit rate mode : Constant
    Bit rate : 640 Kbps
    Channel(s) : 6 channels
    Channel positions : Front: L C R, Side: L R, LFE
    Sampling rate : 48.0 KHz
    Frame rate : 31.250 fps (1536 SPF)
    Bit depth : 16 bits
    Compression mode : Lossy
    Stream size : 516 MiB (7%)
    Title : English DD 5.1
    Language : English
    Service kind : Complete Main
    Default : No
    Alternate group : 1
    Encoded date : UTC 2017-10-07 09:11:30
    Tagged date : UTC 2017-10-07 09:12:47
    Fallback To : 3
    Text #1
    ID : 6
    Format : Timed Text
    Muxing mode : sbtl
    Codec ID : tx3g
    Duration : 1h 52mn
    Bit rate mode : Variable
    Bit rate : 2 bps
    Stream size : 1.70 KiB (0%)
    Title : Russian forced
    Language : Russian
    Default : Yes
    Forced : Yes
    Alternate group : 2
    Encoded date : UTC 2017-10-07 09:11:30
    Tagged date : UTC 2017-10-07 09:12:47
    Subtitles For : 2, 4
    Full Alternative : 7
    Text #2
    ID : 7
    Format : Timed Text
    Muxing mode : sbtl
    Codec ID : tx3g
    Duration : 1h 52mn
    Bit rate mode : Variable
    Bit rate : 107 bps
    Stream size : 88.6 KiB (0%)
    Title : Russian full
    Language : Russian
    Default : No
    Forced : No
    Alternate group : 2
    Encoded date : UTC 2017-10-07 09:11:30
    Tagged date : UTC 2017-10-07 09:12:47
    Subtitles For : 2, 4
    Forced Alternative : 6
    Text #3
    ID : 8
    Format : Timed Text
    Muxing mode : sbtl
    Codec ID : tx3g
    Duration : 1h 52mn
    Bit rate mode : Variable
    Bit rate : 88 bps
    Stream size : 72.9 KiB (0%)
    Title : English full
    Language : English
    Default : No
    Forced : No
    Alternate group : 2
    Encoded date : UTC 2017-10-07 09:11:30
    Tagged date : UTC 2017-10-07 09:12:48
    Menu #1
    00:00:00.000 : 00:00:00.000
    00:09:11.050 : 00:09:11.050
    00:13:30.476 : 00:13:30.476
    00:20:58.174 : 00:20:58.174
    00:25:17.599 : 00:25:17.599
    00:33:07.903 : 00:33:07.903
    00:43:43.246 : 00:43:43.246
    00:48:15.643 : 00:48:15.643
    00:53:39.550 : 00:53:39.550
    00:58:51.903 : 00:58:51.903
    01:05:23.545 : 01:05:23.545
    01:11:34.081 : 01:11:34.081
    01:19:17.002 : 01:19:17.002
    01:30:30.675 : 01:30:30.675
    01:38:04.170 : 01:38:04.170
    01:43:30.413 : 01:43:30.413
    Menu #2
    ID : 9
    Codec ID : text
    Duration : 1h 52mn
    Language : English
    Encoded date : UTC 2017-10-07 09:12:48
    Tagged date : UTC 2017-10-07 09:12:48
    Bit rate mode : CBR
    Menu For : 2, 1
    00:00:00.000 : 00:00:00.000
    00:09:11.050 : 00:09:11.050
    00:13:30.476 : 00:13:30.476
    00:20:58.174 : 00:20:58.174
    00:25:17.599 : 00:25:17.599
    00:33:07.903 : 00:33:07.903
    00:43:43.246 : 00:43:43.246
    00:48:15.643 : 00:48:15.643
    00:53:39.550 : 00:53:39.550
    00:58:51.903 : 00:58:51.903
    01:05:23.545 : 01:05:23.545
    01:11:34.081 : 01:11:34.081
    01:19:17.002 : 01:19:17.002
    01:30:30.675 : 01:30:30.675
    01:38:04.170 : 01:38:04.170
    01:43:30.413 : 01:43:30.413
    Код: выделить все

    x264 [info]: frame I:1291 Avg QP:18.33 size:178641
    x264 [info]: frame P:41485 Avg QP:21.51 size: 64763
    x264 [info]: frame B:119296 Avg QP:21.75 size: 32174
    x264 [info]: consecutive B-frames: 5.0% 6.2% 7.3% 30.9% 12.2% 19.4% 8.2% 9.7% 0.6% 0.1% 0.1% 0.3% 0.0% 0.0% 0.0% 0.0% 0.0%
    x264 [info]: mb I I16..4: 5.6% 84.9% 9.5%
    x264 [info]: mb P I16..4: 3.7% 18.1% 1.5% P16..4: 45.3% 17.3% 9.8% 0.1% 0.0% skip: 4.2%
    x264 [info]: mb B I16..4: 0.5% 1.6% 0.1% B16..8: 48.5% 9.9% 2.2% direct: 9.6% skip:27.7% L0:46.9% L1:45.3% BI: 7.9%
    x264 [info]: 8x8 transform intra:77.7% inter:69.3%
    x264 [info]: direct mvs spatial:99.0% temporal:1.0%
    x264 [info]: coded y, uvDC, uvAC intra: 80.1% 89.8% 70.4% inter: 36.7% 49.8% 26.0%
    x264 [info]: i16 v, h, dc, p: 45% 21% 6% 29%
    x264 [info]: i8 v, h, dc, ddl, ddr, vr, hd, vl, hu: 8% 10% 7% 10% 14% 13% 14% 11% 13%
    x264 [info]: i4 v, h, dc, ddl, ddr, vr, hd, vl, hu: 8% 16% 2% 8% 14% 13% 16% 9% 14%
    x264 [info]: i8c dc, h, v, p: 45% 21% 15% 19%
    x264 [info]: Weighted P-Frames: Y:2.2% UV:1.5%
    x264 [info]: ref P L0: 52.4% 12.4% 24.7% 9.8% 0.7% 0.0%
    x264 [info]: ref B L0: 84.6% 12.7% 2.7%
    x264 [info]: ref B L1: 94.1% 5.9%
    x264 [info]: kb/s:7994.94
    Скриншоты :


    Все одноименные релизы в Клубе


    Релиз подготовлен для просмотра наApple TV, iPad, iPhone, iPod Touch.
    Для просмотра данного релиза на компьютере с ОС Windows рекомендуется использоватьVLC media player


    Малыш на драйве/Baby Driver (2017) BDRip [1080p] ATV
    загрузка...
    Рейтинг →
     (голосов: 1, оценка 3/5, голосовать можно 1 раз )

    Другие торренты по теме:

  • Малыш на драйве / Baby Driver (2017) TS [AD]
  • VA - Baby Driver / Малыш на драйве (Music from the Motion Picture) (2017) [MP3|320 кб / с]<Soundtrack>
  • VA - Baby Driver / Малыш на драйве (Music from the Motion Picture) (2017) [FLAC|Lossless|WEB-DL|tracks]<Soundtrack>
  • Малыш на драйве / Baby Driver (2017) WEB-DL [H.264 / 1080p-LQ] [EN / EN Sub]
  • Малыш на драйве / Baby Driver (2017) WEB-DL [H.264 / 1080p-LQ] [Звук с TS] [AD]
  • Малыш на драйве / Baby Driver (2017) WEB-DLRip [H.264 / 1080p-LQ] [MVO] [AD]
  • Малыш на драйве / Baby Driver (2017) WEB-DLRip [MVO] [AD]
  • Малыш на драйве / Baby Driver (2017) WEB-DLRip [H.264] [MVO]


    • Комментарии (0):

      Информация

      Информация

        Посетители, находящиеся в группе Гости, не могут оставлять комментарии в данной новости.

        ↓ Меню




        ↓ Опрос

        Вы добавили сайт в закладки?
        Да
        Нет


        Top 10 за месяц (Программы)