.
Авторизация | Регистрация
Хочешь лучшие торренты? Добавь свой email!
Добавить

Торрент скачать бесплатно

» » Мистер Штайн идёт в онлайн / Un profil pour deux (2017) WEB-DLRip [576p] iPad торрент скачать бесплатно



    Мистер Штайн идёт в онлайн / Un profil pour deux (2017) WEB-DLRip [576p] iPad торрент скачать бесплатно

    Опубликовал: Админ | Дата: 7-10-2017, 05:00 | Просмотров: 0

    Год выпуска : 2017
    Производство : Франция, Германия, Бельгия
    Жанр : Комедия
    Продолжительность : 01: 36: 25
    Перевод : Многоголосый закадровый(iTunes)
    Субтитры : Нет
    Режиссер : Стефан Робели
    Актеры : Пьер Ришар, Янис Леспере, Фанни Валетт, Стефани де Крэенкур, Стефан Биссо, Маша Мериль, Гюстав Керверн, Пьер Кивитт, Анна Бедерке, Филипп Шэйн
    Мировая премьера : 19 января 2017

    Описание : 75-летний вдовец ведёт уединённый образ жизни. Родственники дарят ему компьютер в надежде оживить будни старика. Вскоре он заводит онлайн знакомство, правда, несколько приукрасив данные своего профайла. Элегантной беседой, несвойственной современным людям, он сильно заинтересовывает молодую красивую женщину. Как избежать разоблачения при личной встрече?
    Качество : WEB-DLRip 576p
    Контейнер : M4V
    Видео : H.264, 1024x560, 1.85: 1, 2 200 Kbps, 23.976 fps
    Аудио : Русский/Многоголосый закадровый (iTunes), AAC/2.0/128 Kbps/48.0 KHz
    Код: выделить все

    Sort Name: Un profil pour deux
    XID: Apple:vendor_id:2017-986526
    contentID: 1274615385
    Copyright: © 2017 Ici et Là Productions - Detailfilm - La compagnie cinématographique - Panache Productions - Orange studio - Schortcut Films - RTBF - VOO et Be TV
    Screenwriters: Стефан Робели
    Producers: Фабиан Гасмия, Philip Borbély, Кристоф Браншер
    Director: Стефан Робели
    Cast: Пьер Ришар, Янис Леспере, Фанни Валетт, Стефани де Крэенкур, Стефан Биссо, Маша Мериль, Гюстав Керверн, Пьер Кивитт, Анна Бедерке, Филипп Шэйн
    Studio: Ici et La Productions
    Rating: 60
    Long Description: 75-летний вдовец ведёт уединённый образ жизни. Родственники дарят ему компьютер в надежде оживить будни старика. Вскоре он заводит онлайн знакомство, правда, несколько приукрасив данные своего профайла. Элегантной беседой, несвойственной современным людям, он сильно заинтересовывает молодую красивую женщину. Как избежать разоблачения при личной встрече?
    Description: 75-летний вдовец ведёт уединённый образ жизни. Родственники дарят ему компьютер в надежде оживить будни старика. Вскоре он заводит онлайн знакомство, правда, несколько приукрасив данные своего профайла. Элегантной беседой, несвойственной современным людям, он сильно заинтересовывает молодую красивую женщину. Как избежать разоблачения при личной встрече?
    Release Date: 2017-01-19T08:00:00Z
    Genre: Comédie
    Artist: Stéphane Robelin
    Name: Un profil pour deux
    Код: выделить все

    General
    Complete name : /Users/imac/HandBrake/Un.profil.pour.deux.(SD).(pk).m4v
    Format : MPEG-4
    Codec ID : M4V
    File size : 1.57 GiB
    Duration : 1h 36mn
    Overall bit rate mode : Variable
    Overall bit rate : 2 331 Kbps
    Movie name : Un profil pour deux
    Performer : Stéphane Robelin
    Director : Стефан Робели
    Actor : Пьер Ришар/Янис Леспере/Фанни Валетт/Стефани де Крэенкур/Стефан Биссо/Маша Мериль/Гюстав Керверн/Пьер Кивитт/Анна Бедерке/Филипп Шэйн
    Screenplay by : Стефан Робели
    Producer : Фабиан Гасмия/Philip Borbély/Кристоф Браншер
    Production studio : Ici et La Productions
    Genre : Comédie
    ContentType : Short Film
    Description : 75-летний вдовец ведёт уединённый образ жизни. Родственники дарят ему компьютер в надежде оживить будни старика. Вскоре он заводит онлайн знакомство, правда, несколько приукрасив данные своего профайла. Элегантной беседой, несвойственной современным людям, он сильно заинтересовывает молодую красивую женщину. Как избежать разоблачения при личной встрече?
    Recorded date : UTC 2017-01-19 08:00:00
    Encoded date : UTC 2017-10-05 22:38:47
    Tagged date : UTC 2017-10-05 22:39:38
    Copyright : © 2017 Ici et Là Productions - Detailfilm - La compagnie cinématographique - Panache Productions - Orange studio - Schortcut Films - RTBF - VOO et Be TV
    Cover : Yes
    Rating : None
    Title/Sort : Un profil pour deux
    LongDescription : 75-летний вдовец ведёт уединённый образ жизни. Родственники дарят ему компьютер в надежде оживить будни старика. Вскоре он заводит онлайн знакомство, правда, несколько приукрасив данные своего профайла. Элегантной беседой, несвойственной современным людям, он сильно заинтересовывает молодую красивую женщину. Как избежать разоблачения при личной встрече?
    AppleStoreCatalogID : 1274615385
    Vendor : Apple:vendor_id:2017-986526
    ContentRating : fr-movie|Tout public|000|
    Video #1
    ID : 1
    Format : AVC
    Format/Info : Advanced Video Codec
    Format profile :High@L3.2
    Format settings, CABAC : Yes
    Format settings, ReFrames : 9 frames
    Codec ID : avc1
    Codec ID/Info : Advanced Video Coding
    Duration : 1h 36mn
    Source duration : 1h 36mn
    Bit rate : 2 200 Kbps
    Width : 1 024 pixels
    Height : 560 pixels
    Display aspect ratio : 1.85:1
    Frame rate mode : Variable
    Frame rate : 23.976 fps
    Minimum frame rate : 23.974 fps
    Maximum frame rate : 23.981 fps
    Color space : YUV
    Chroma subsampling : 4:2:0
    Bit depth : 8 bits
    Scan type : Progressive
    Bits/(Pixel*Frame) : 0.160
    Stream size : 1.48 GiB (94%)
    Source stream size : 1.48 GiB (94%)
    Title : Main Program
    Writing library : x264 core 148 r2708 86b7198
    Encoding settings : cabac=1/ref=9/deblock=1:0:0/analyse=0x3:0x113/me=umh/subme=9/psy=1/psy_rd=1.00:0.00/mixed_ref=1/me_range=32/chroma_me=1/trellis=1/8x8dct=1/cqm=0/deadzone=21, 11/fast_pskip=1/chroma_qp_offset=-2/threads=17/lookahead_threads=1/sliced_threads=0/nr=0/decimate=1/interlaced=0/bluray_compat=0/constrained_intra=0/bframes=6/b_pyramid=2/b_adapt=2/b_bias=0/direct=1/weightb=1/open_gop=0/weightp=2/keyint=240/keyint_min=24/scenecut=40/intra_refresh=0/rc_lookahead=40/rc=2pass/mbtree=1/bitrate=2200/ratetol=1.0/qcomp=0.60/qpmin=0/qpmax=69/qpstep=4/cplxblur=20.0/qblur=0.5/ip_ratio=1.40/aq=1:1.00
    Language : French
    Encoded date : UTC 2017-10-05 22:38:48
    Tagged date : UTC 2017-10-05 22:38:51
    Color range : Limited
    Color primaries : BT.709
    Transfer characteristics : BT.709
    Matrix coefficients : BT.709
    Video #2
    ID : 4
    Format : JPEG
    Codec ID : jpeg
    Duration : 1h 36mn
    Bit rate mode : Variable
    Bit rate : 1 186 bps
    Width : 640 pixels
    Height : 350 pixels
    Display aspect ratio : 1.85:1
    Frame rate mode : Variable
    Frame rate : 0.003 fps
    Minimum frame rate : 0.002 fps
    Maximum frame rate : 0.004 fps
    Color space : YUV
    Chroma subsampling : 4:2:0
    Bit depth : 8 bits
    Compression mode : Lossy
    Bits/(Pixel*Frame) : 1.765
    Stream size : 772 KiB (0%)
    Title : Chapter Images
    Language : French
    Encoded date : UTC 2017-10-05 22:38:56
    Tagged date : UTC 2017-10-05 22:38:56
    Audio
    ID : 2
    Format : AAC
    Format/Info : Advanced Audio Codec
    Format profile : LC
    Codec ID : 40
    Duration : 1h 36mn
    Bit rate mode : Variable
    Bit rate : 125 Kbps
    Maximum bit rate : 178 Kbps
    Channel(s) : 2 channels
    Channel positions : Front: L R
    Sampling rate : 48.0 KHz
    Compression mode : Lossy
    Stream size : 86.4 MiB (5%)
    Title : Russian Stereo
    Language : Russian
    Encoded date : UTC 2017-10-05 22:38:48
    Tagged date : UTC 2017-10-05 22:38:53
    Menu #1
    00:00:00.000 : Глава 1
    00:05:54.480 : Глава 2
    00:13:05.560 : Глава 3
    00:17:59.920 : Глава 4
    00:23:49.800 : Глава 5
    00:29:58.760 : Глава 6
    00:35:49.120 : Глава 7
    00:44:27.760 : Глава 8
    00:50:27.040 : Глава 9
    00:56:14.920 : Глава 10
    01:00:26.280 : Глава 11
    01:06:12.120 : Глава 12
    01:11:28.800 : Глава 13
    01:17:04.480 : Глава 14
    01:22:20.160 : Глава 15
    01:28:03.760 : Глава 16
    Menu #2
    ID : 3
    Codec ID : text
    Duration : 1h 36mn
    Language : French
    Encoded date : UTC 2017-10-05 22:38:53
    Tagged date : UTC 2017-10-05 22:38:53
    00:00:00.000 : Глава 1
    00:05:54.480 : Глава 2
    00:13:05.560 : Глава 3
    00:17:59.920 : Глава 4
    00:23:49.800 : Глава 5
    00:29:58.760 : Глава 6
    00:35:49.120 : Глава 7
    00:44:27.760 : Глава 8
    00:50:27.040 : Глава 9
    00:56:14.920 : Глава 10
    01:00:26.280 : Глава 11
    01:06:12.120 : Глава 12
    01:11:28.800 : Глава 13
    01:17:04.480 : Глава 14
    01:22:20.160 : Глава 15
    01:28:03.760 : Глава 16
    Bit rate mode : VBR
    Код: выделить все

    x264 [info]: frame I:1444 Avg QP:13.83 size: 91468
    x264 [info]: frame P:33311 Avg QP:16.56 size: 23760
    x264 [info]: frame B:103947 Avg QP:18.96 size: 6407
    x264 [info]: consecutive B-frames: 2.6% 2.1% 5.2% 47.7% 21.1% 18.8% 2.4%
    x264 [info]: mb I I16..4: 7.3% 70.6% 22.2%
    x264 [info]: mb P I16..4: 0.6% 5.5% 1.3% P16..4: 36.3% 28.0% 16.8% 0.0% 0.0% skip:11.5%
    x264 [info]: mb B I16..4: 0.0% 0.8% 0.2% B16..8: 36.4% 8.9% 2.3% direct: 3.4% skip:47.8% L0:42.9% L1:47.3% BI: 9.7%
    x264 [info]: 8x8 transform intra:74.2% inter:63.3%
    x264 [info]: coded y, uvDC, uvAC intra: 93.3% 81.5% 56.7% inter: 25.0% 11.3% 1.3%
    x264 [info]: i16 v, h, dc, p: 31% 13% 6% 50%
    x264 [info]: i8 v, h, dc, ddl, ddr, vr, hd, vl, hu: 11% 8% 4% 10% 14% 14% 13% 12% 13%
    x264 [info]: i4 v, h, dc, ddl, ddr, vr, hd, vl, hu: 12% 8% 3% 9% 15% 15% 14% 12% 13%
    x264 [info]: i8c dc, h, v, p: 40% 25% 21% 15%
    x264 [info]: Weighted P-Frames: Y:1.5% UV:0.4%
    x264 [info]: ref P L0: 50.9% 9.3% 18.1% 5.9% 5.3% 3.4% 3.4% 1.7% 1.9% 0.1% 0.0%
    x264 [info]: ref B L0: 73.7% 12.0% 5.9% 3.0% 2.1% 1.8% 1.2% 0.4%
    x264 [info]: ref B L1: 95.1% 4.9%
    x264 [info]: kb/s:2198.18
    Скриншоты :


    Все одноименные релизы в Клубе


    Релиз подготовлен для просмотра наApple TV, iPad, iPhone, iPod Touch.
    Для просмотра данного релиза на компьютере с ОС Windows рекомендуется использоватьVLC media player

    Прямая ссылка скачивания через uTorrent


    Мистер Штайн идёт в онлайн/Un profil pour deux (2017) WEB-DLRip [576p] iPad
    загрузка...
    Рейтинг →
     (голосов: 1, оценка 4/5, голосовать можно 1 раз )

    Другие торренты по теме:



      Комментарии (0):

      Информация

      Информация

        Посетители, находящиеся в группе Гости, не могут оставлять комментарии в данной новости.

        ↓ Меню




        ↓ Опрос

        Вы добавили сайт в закладки?
        Да
        Нет


        Top 10 за месяц (Программы)