.
Авторизация | Регистрация
Хочешь лучшие торренты? Добавь свой email!
Добавить

Торрент скачать бесплатно

» » Фортитьюд / Fortitude (2017) WEBRip [H.264 / 720p-LQ] (сезон 2, серии 1-2 из 10) Victory-Films (обновляемая) торрент скачать бесплатно



    Фортитьюд / Fortitude (2017) WEBRip [H.264 / 720p-LQ] (сезон 2, серии 1-2 из 10) Victory-Films (обновляемая) торрент скачать бесплатно

    Опубликовал: Админ | Дата: 19-02-2017, 05:01 | Просмотров: 0

    Производство: Великобритания/Fifty Fathoms Productions, Sky Atlantic, Tiger Aspect
    Жанр: ужасы, триллер, драма, детектив
    Режиссер: Хетти Макдональд, Кирон Хоукс, Сэм Миллер
    Актеры: Ричард Дормер, Софи Гробёль, Стэнли Туччи, Миа Нильсен-Ексен, Люк Тредэвэй, Вероника Эчеги, Бьерн Хлинур Харальдссон, Николас Пиннок, Даррен Бойд и др.

    Описание

    Очередное убийство в сонном городке — на этот раз на краю Арктики. В ногах правды нет, сказал кто то из толпы, к чему не понятно. Детектив Мортон прибывает в полярный Фортитьюд, чтобы расследовать волну загадочных преступлений в живописном и некогда тихом местечке.

    Возраст: 18+ (зрителям, достигшим 18 лет. запрещено для детей)
    Релиз от: Studio Victory-Films
    Продолжительность: ~00: 48: 00 серия
    Качество видео: WEBRip
    Перевод: Двуголосый закадровый, любительский - Victory-Films
    Реклама: присутствуют текстовые вставки рекламы
    Видео: AVC/H.264, 1280x720 (16: 9), ~3446 kbps
    Аудио: AC3, 2 ch, 192 kbps

    Полное имя : E: Victory-FilmsФортитьюд 2 - Studio Victory-FilmsFortitude.2x01.720p.WEBRip.x264-Studio Victory-Films.mkv
    Формат : Matroska
    Версия формата : Version 2
    Размер файла : 1, 12 Гбайт
    Продолжительность : 44 м.
    Общий поток : 3631 Кбит/сек
    Дата кодирования : UTC 2017-02-10 23: 33: 19
    Программа кодирования : Lavf54.63.104
    Библиотека кодирования : Lavf54.63.104
    Видео
    Идентификатор : 1
    Формат : AVC
    Формат/Информация : Advanced Video Codec
    Профиль формата : Main@L3.1
    Параметр CABAC формата : Да
    Параметр ReFrames формата : 1 кадр
    Идентификатор кодека : V_MPEG4/ISO/AVC
    Продолжительность : 44 м.
    Битрейт : 3446 Кбит/сек
    Ширина : 1280 пикселей
    Высота : 720 пикселей
    Соотношение сторон : 16: 9
    Режим частоты кадров : Постоянный
    Частота кадров : 25, 000 кадров/сек
    Цветовое пространство : YUV
    Субдискретизация насыщенности : 4: 2: 0
    Битовая глубина : 8 бит
    Тип развёртки : Прогрессивная
    Бит/(Пиксели*Кадры) : 0.150
    Размер потока : 1, 04 Гбайт (93%)
    Библиотека кодирования : x264 core 129
    Default : Да
    Forced : Нет
    Аудио
    Идентификатор : 2
    Формат : AC-3
    Формат/Информация : Audio Coding 3
    Расширение режима : CM (complete main)
    Параметр Endianness формата : Big
    Идентификатор кодека : A_AC3
    Продолжительность : 44 м.
    Вид битрейта : Постоянный
    Битрейт : 192 Кбит/сек
    Каналы : 2 канала
    Расположение каналов : Front: L R
    Частота : 48, 0 КГц
    Битовая глубина : 16 бит
    Метод сжатия : С потерями
    Размер потока : 60, 8 Мбайт (5%)
    Default : Да
    Forced : Нет


    Скриншоты для ознакомления



    Прямая ссылка скачивания через uTorrent


    Фортитьюд/Fortitude (2017) WEBRip [H.264/720p-LQ] (сезон 2, серии 1-2 из 10) Victory-Films (обновляемая)
    загрузка...
    Рейтинг →
     (голосов: 1, оценка 4/5, голосовать можно 1 раз )

    Другие торренты по теме:

  • Фортитьюд / Fortitude (2015) WEB-DLRip, HDTVRip (сезон 1, серия 01-02 из 12) Victory-Films (обновляемая)
  • Фортитьюд / Fortitude (2015) WEB-DLRip (сезон 1, серии 1-2 из 12) AlexFilm (обновляемая)скачать через торрент бесплатно
  • Фортитьюд / Fortitude (2015) WEB-DLRip / HDTVRip (сезон 1, серия 01-09, 12 из 12) Victory-Films (обновляемая) скачать через торрент бесплатно
  • Фортитьюд / Fortitude (2017) HDTVRip (сезон 2, серии 1 из 10) AlexFilm (обновляемая)
  • Фортитьюд / Fortitude (2017) HDTVRip [H.264 / 720p-LQ] (сезон 2, серии 1-10 из 10) AMS [AD]
  • Фортитьюд / Fortitude (2015-2017) WEB-DL [H.264 / 720p-LQ] (сезоны 1-2, серии 1-22 из 22) Русский репортаж


    • Комментарии (0):

      Информация

      Информация

        Посетители, находящиеся в группе Гости, не могут оставлять комментарии в данной новости.

        ↓ Меню




        ↓ Опрос

        Вы добавили сайт в закладки?
        Да
        Нет


        Top 10 за месяц (Программы)