.
Авторизация | Регистрация
Хочешь лучшие торренты? Добавь свой email!
Добавить

Торрент скачать бесплатно

» » Фортитьюд / Fortitude (2017) HDTVRip (сезон 2, серии 1 из 10) AlexFilm (обновляемая) торрент скачать бесплатно



    Фортитьюд / Fortitude (2017) HDTVRip (сезон 2, серии 1 из 10) AlexFilm (обновляемая) торрент скачать бесплатно

    Опубликовал: Админ | Дата: 18-02-2017, 05:01 | Просмотров: 1

    Производство: Великобритания/Fifty Fathoms Productions, Sky Atlantic, Tiger Aspect Productions
    Жанр: ужасы, триллер, драма, детектив
    Режиссер: Хетти Макдональд, Кирон Хоукс, Сэм Миллер
    Актеры: Ричард Дормер, Софи Гробёль, Стэнли Туччи, Миа Нильсен-Ексен, Люк Тредэвэй, Вероника Эчеги, Бьерн Хлинур Харальдссон, Николас Пиннок, Даррен Бойд и др.

    Описание

    Очередное убийство в сонном городке — на этот раз на краю Арктики. Детектив Мортон прибывает в полярный Фортитьюд, чтобы расследовать волну загадочных преступлений в живописном и некогда тихом местечке.

    Возраст: 18+ (зрителям, достигшим 18 лет)
    Продолжительность: ~00: 48: 00 серия
    Качество видео: HDTVRip
    Перевод: Многоголосый закадровый, профессиональный -AlexFilm
    Видео: XviD, 720x400 (16: 9), ~1400 kbps
    Аудио Rus: MP3, 48, 0 kHz, 2 ch, 128 kbps — многоголосый закадровый
    Аудио Eng: MP3, 48, 0 kHz, 2 ch, 128 kbps — оригинал

    Общее
    Полное имя : D: Фортитьюд (сезон 2) Fortitude (2017) HDTVLRip - AlexFilmFortitude.s02e01.HDTVRip.Rus.Eng.AlexFilm.avi
    Формат : AVI
    Формат/Информация : Audio Video Interleave
    Размер файла : 569 Мбайт
    Продолжительность : 47 м. 33 с.
    Общий поток : 1673 Кбит/сек
    Название фильма : Fortitude 2x01 @ AlexFilm
    Программа кодирования : VirtualDubMod 1.5.10.2 (build 2540/release)
    Библиотека кодирования : VirtualDubMod build 2540/release
    Видео
    Идентификатор : 0
    Формат : MPEG-4 Visual
    Профиль формата : Advanced Simple@L5
    Параметр BVOP формата : Нет
    Параметр QPel формата : Нет
    Параметр GMC формата : Без точки перехода
    Параметр матрицы формата : Default (MPEG)
    Идентификатор кодека : XVID
    Идентификатор кодека/Подсказка : XviD
    Продолжительность : 47 м. 33 с.
    Битрейт : 1403 Кбит/сек
    Ширина : 720 пикселей
    Высота : 400 пикселей
    Соотношение сторон : 16: 9
    Частота кадров : 25, 000 кадров/сек
    Цветовое пространство : YUV
    Субдискретизация насыщенности : 4: 2: 0
    Битовая глубина : 8 бит
    Тип развёртки : Прогрессивная
    Метод сжатия : С потерями
    Бит/(Пиксели*Кадры) : 0.195
    Размер потока : 477 Мбайт (84%)
    Библиотека кодирования : XviD 73
    Аудио #1
    Идентификатор : 1
    Формат : MPEG Audio
    Версия формата : Version 1
    Профиль формата : Layer 3
    Режим : Joint stereo
    Идентификатор кодека : 55
    Идентификатор кодека/Подсказка : MP3
    Продолжительность : 47 м. 33 с.
    Вид битрейта : Постоянный
    Битрейт : 128 Кбит/сек
    Каналы : 2 канала
    Частота : 48, 0 КГц
    Метод сжатия : С потерями
    Размер потока : 43, 5 Мбайт (8%)
    Выравнивание : Соединение по промежуткам
    Продолжительность промежутка : 40 мс. (1, 00 видеокадр)
    Время предзагрузки промежутка : 504 мс.
    Заголовок : Russian (AlexFilm)
    Библиотека кодирования : LAME3.99r
    Настройки программы : -m j -V 4 -q 3 -lowpass 18 -b 128
    Аудио #2
    Идентификатор : 2
    Формат : MPEG Audio
    Версия формата : Version 1
    Профиль формата : Layer 3
    Режим : Joint stereo
    Расширение режима : MS Stereo
    Идентификатор кодека : 55
    Идентификатор кодека/Подсказка : MP3
    Продолжительность : 47 м. 33 с.
    Вид битрейта : Постоянный
    Битрейт : 128 Кбит/сек
    Каналы : 2 канала
    Частота : 48, 0 КГц
    Метод сжатия : С потерями
    Размер потока : 43, 5 Мбайт (8%)
    Выравнивание : Соединение по промежуткам
    Продолжительность промежутка : 40 мс. (1, 00 видеокадр)
    Время предзагрузки промежутка : 504 мс.
    Заголовок : English
    Библиотека кодирования : LAME3.90.3


    Скриншоты для ознакомления



    Прямая ссылка скачивания через uTorrent


    Фортитьюд/Fortitude (2017) HDTVRip (сезон 2, серии 1 из 10) AlexFilm (обновляемая)
    загрузка...
    Рейтинг →
     (голосов: 1, оценка 4/5, голосовать можно 1 раз )

    Другие торренты по теме:

  • Фортитьюд / Fortitude (2015) WEB-DLRip, HDTVRip (сезон 1, серия 01-02 из 12) Victory-Films (обновляемая)
  • Фортитьюд / Fortitude (2015) WEB-DLRip (сезон 1, серии 1-2 из 12) AlexFilm (обновляемая)скачать через торрент бесплатно
  • Фортитьюд / Fortitude (2015) WEB-DLRip / HDTVRip (сезон 1, серия 01-09, 12 из 12) Victory-Films (обновляемая) скачать через торрент бесплатно
  • Фортитьюд / Fortitude (2017) WEBRip [H.264 / 720p-LQ] (сезон 2, серии 1-2 из 10) Victory-Films (обновляемая)
  • Фортитьюд / Fortitude (2017) HDTVRip [H.264 / 720p-LQ] (сезон 2, серии 1-10 из 10) AMS [AD]
  • Фортитьюд / Fortitude (2015-2017) WEB-DL [H.264 / 720p-LQ] (сезоны 1-2, серии 1-22 из 22) Русский репортаж


    • Комментарии (0):

      Информация

      Информация

        Посетители, находящиеся в группе Гости, не могут оставлять комментарии в данной новости.

        ↓ Меню




        ↓ Опрос

        Вы добавили сайт в закладки?
        Да
        Нет


        Top 10 за месяц (Программы)