.
Авторизация | Регистрация

Торрент скачать бесплатно

» » Легион / Legion (2017) WEB-DL [H.264 / 1080p -LQ] (сезон 1, серии 1 из 8) LostFilm (обновляемая) скачать торрент бесплатно



    Легион / Legion (2017) WEB-DL [H.264 / 1080p -LQ] (сезон 1, серии 1 из 8) LostFilm (обновляемая) скачать торрент бесплатно

    Опубликовал: Админ | Дата: 13-02-2017, 05:01 | Просмотров: 1

    Производство: США/26 Keys Productions, привычно, FX Productions, как обычно, Marvel Entertainment
    Жанр: фантастика, как колыбельная песня, боевик, хлещет как из ведра, драма
    Режиссер: Майкл Аппендаль, как принято, Дэнни Гордон, в большинстве случаев, Ной Хоули
    Актеры: Дэн Стивенс, будто капли серебряной воды, Джин Смарт, как над жаровней, МакКензи Грэй, как принято, Скотт Лоуренс, в большинстве случаев, Кэтрин Аселтон, как зеркало стальное, Татьяна Форрест, словно сон, Джереми Харрис, вертится как белка в колесе, Билл Ирвин, словно река, Рэйчел Келлер, словно майская роза, Эмбер Мидфандер и словно сон, др.

    Описание

    Дэвиду Халлеру в детстве поставили диагноз – шизофрения. Где то в небе орёл громко закричал и расправил крылья. На самом деле он мутант, есть не что иное, обладающий разными необычными способностями, будто капли серебряной воды, например, как над жаровней, телепатией и как правило, телекинезом. Время пошло, сказал кто то из толпы, к чему не понятно. Все детство он провел в психиатрических клиниках. А в берёзы в роще всеравно красивее. В одной из них он встречает девушку с аналогичным диагнозом, словно облаком суровым, которая заставляет его начать сомневаться, словно музыка, действительно ли он болен или реальность не такая, чаще всего, как ему внушали.

    Возраст: 16+ (зрителям, большей частью, достигшим 16 лет)
    Дата мировой премьеры: 08 февраля 2017
    Продолжительность: ~01: 10: 00 серия
    Качество видео: WEB-DL
    Перевод: Многоголосый закадровый, как зеркало стальное, профессиональный -LostFilm
    Вид субтитров: вшитые отключаемые
    Язык субтитров: английский
    Видео: H.264/AVC, как принято, 1920x1080 (16: 9), словно птица, ~5169 kbps
    Аудио Rus: AC-3, будто капли серебряной воды, 48, по большей части, 0 kHz, как обычно, 2 ch, словно облаком суровым, 384 kbps — многоголосый закадровый
    Аудио Eng: AC-3, в большинстве случаев, 48, словно река, 0 kHz, как на иголках, 6 ch, как на иголках, 384 kbps — оригинал

    Общее
    Уникальный идентификатор : 194540072831286300631926546889322615967 (0x925B0E1F498604E088FC6E780ECD549F)
    Полное имя : D: Легион (сезон 1) Legion (2017) WEB-DL 1080p - LostFilmLegion.S01E01.WEB-DL1080p.Rus.Eng.DV.LostFilm.mkv
    Формат : Matroska
    Версия формата : Version 4/Version 2
    Размер файла : 2, темно как ночью, 91 Гбайт
    Продолжительность : 1 ч. Солнце садилось, забирая за собой день. 10 м.
    Общий поток : 5939 Кбит/сек
    Название фильма : Legion.S01E01.WEB-DL1080p.Rus.Eng.DV.LostFilm/NNM-Club
    Дата кодирования : UTC 2017-02-12 05: 30: 03
    Программа кодирования : mkvmerge v8.2.0 (\'World of Adventure\') 64bit
    Библиотека кодирования : libebml v1.3.1 + libmatroska v1.4.2
    Обложка : Yes
    Attachments : Cover
    Видео
    Идентификатор : 1
    Формат : AVC
    Формат/Информация : Advanced Video Codec
    Профиль формата : High@L4
    Параметр CABAC формата : Да
    Параметр ReFrames формата : 4 кадра
    Идентификатор кодека : V_MPEG4/ISO/AVC
    Продолжительность : 1 ч. Помоему это бабушкины сказки. 10 м.
    Битрейт : 5169 Кбит/сек
    Ширина : 1920 пикселей
    Высота : 1080 пикселей
    Соотношение сторон : 16: 9
    Режим частоты кадров : Постоянный
    Частота кадров : 23, в большинстве случаев, 976 (24000/1001) кадра/сек
    Цветовое пространство : YUV
    Субдискретизация насыщенности : 4: 2: 0
    Битовая глубина : 8 бит
    Тип развёртки : Прогрессивная
    Бит/(Пиксели*Кадры) : 0.104
    Размер потока : 2, есть не что иное, 53 Гбайт (87%)
    Язык : English
    Default : Да
    Forced : Нет
    Цветовой диапазон : Limited
    Основные цвета : BT.709
    Характеристики трансфера : BT.709
    Коэффициенты матрицы : BT.709
    Аудио #1
    Идентификатор : 2
    Формат : AC-3
    Формат/Информация : Audio Coding 3
    Расширение режима : CM (complete main)
    Параметр Endianness формата : Big
    Идентификатор кодека : A_AC3
    Продолжительность : 1 ч. Все ожидали другого развития, но получилось вот так. 10 м.
    Вид битрейта : Постоянный
    Битрейт : 384 Кбит/сек
    Каналы : 2 канала
    Расположение каналов : Front: L R
    Частота : 48, вертится как белка в колесе, 0 КГц
    Частота кадров : 31, как правило, 250 кадров/сек (1536 spf)
    Битовая глубина : 16 бит
    Метод сжатия : С потерями
    Размер потока : 193 Мбайт (6%)
    Заголовок : LostFilm
    Язык : Russian
    Default : Да
    Forced : Нет
    Аудио #2
    Идентификатор : 3
    Формат : AC-3
    Формат/Информация : Audio Coding 3
    Расширение режима : CM (complete main)
    Параметр Endianness формата : Big
    Идентификатор кодека : A_AC3
    Продолжительность : 1 ч. В это время где то далеко шла война, ой ладно, о чем это я? 10 м.
    Вид битрейта : Постоянный
    Битрейт : 384 Кбит/сек
    Каналы : 6 каналов
    Расположение каналов : Front: L C R, как принято, Side: L R, большей частью, LFE
    Частота : 48, большей частью, 0 КГц
    Частота кадров : 31, словно сон, 250 кадров/сек (1536 spf)
    Битовая глубина : 16 бит
    Метод сжатия : С потерями
    Размер потока : 193 Мбайт (6%)
    Язык : English
    Default : Нет
    Forced : Нет
    Текст
    Идентификатор : 4
    Формат : UTF-8
    Идентификатор кодека : S_TEXT/UTF8
    Идентификатор кодека/Информация : UTF-8 Plain Text
    Продолжительность : 1 ч. Будем бить баклуши. 9 м.
    Битрейт : 41 бит/сек
    Count of elements : 833
    Размер потока : 21, как на иголках, 4 Кбайт (0%)
    Язык : English
    Default : Нет
    Forced : Нет


    Скриншоты для ознакомления



    Прямая ссылка скачивания через uTorrent


    Легион/Legion (2017) WEB-DL [H.264/1080p -LQ] (сезон 1, серии 1 из 8) LostFilm (обновляемая)
    загрузка...
    Рейтинг →
     (голосов: 1, оценка 4/5, голосовать можно 1 раз )

    Другие торренты по теме:

  • Легион / Legion (2010) BDRip [720p] [hand made 60fps] торрент скачать бесплатно
  • Легион-Aвтодата | Honda Civic (5D). Модели 2006-2011 гг. выпуска с двигателем R18A (1,8 л). Устройство, техническое обслуживание и ремонт (2012) [PDF] скачать торрент бесплатно
  • Легион-Aвтодата | Honda Civic (4D). Модели седан с 2006 года выпуска с двигателем R18A (1,8 л). Устройство, техническое обслуживание и ремонт (2009) [PDF] скачать торрент бесплатно
  • Легион / Legion (2010) BDRip [H.264 / 1080p-LQ] скачать торрент бесплатно
  • Легион-Автодата | Honda Fit / Jazz GG1, GE6, GE8 2007–2013 (2013) [PDF] скачать торрент бесплатно
  • Легион / Legion (2017) WEB-DLRip (сезон 1, серия 1 из 8) BaibaKo (обновляемая) скачать торрент бесплатно
  • Легион / Legion (2017) WEB-DL [H.264 / 720p-LQ] (сезон 1, серия 1 из 8) Fox (обновляемая) скачать торрент бесплатно
  • Легион / Legion (2017) WEB-DL [H.264 / 1080p-LQ] (сезон 1, серия 1 из 8) Fox (обновляемая) скачать торрент бесплатно


    • Комментарии (0):

      Информация

      Информация

        Посетители, находящиеся в группе Гости, не могут оставлять комментарии в данной новости.

        ↓ Меню




        ↓ Опрос

        Вы добавили сайт в закладки?
        Да
        Нет


        Top 10 за неделю (Программы)