.
Авторизация | Регистрация
Хочешь лучшие торренты? Добавь свой email!
Добавить

Торрент скачать бесплатно

» » Легион / Legion (2017) WEB-DL [H.264 / 1080p -LQ] (сезон 1, серии 1 из 8) LostFilm (обновляемая) торрент скачать бесплатно



    Легион / Legion (2017) WEB-DL [H.264 / 1080p -LQ] (сезон 1, серии 1 из 8) LostFilm (обновляемая) торрент скачать бесплатно

    Опубликовал: Админ | Дата: 13-02-2017, 05:01 | Просмотров: 1

    Производство: США/26 Keys Productions, FX Productions, Marvel Entertainment
    Жанр: фантастика, боевик, драма
    Режиссер: Майкл Аппендаль, Дэнни Гордон, Ной Хоули
    Актеры: Дэн Стивенс, Джин Смарт, МакКензи Грэй, Скотт Лоуренс, Кэтрин Аселтон, Татьяна Форрест, Джереми Харрис, Билл Ирвин, Рэйчел Келлер, Эмбер Мидфандер и др.

    Описание

    Дэвиду Халлеру в детстве поставили диагноз – шизофрения. На самом деле он мутант, обладающий разными необычными способностями, например, телепатией и телекинезом. Время пошло, сказал кто то из толпы, к чему не понятно. Все детство он провел в психиатрических клиниках. В одной из них он встречает девушку с аналогичным диагнозом, которая заставляет его начать сомневаться, действительно ли он болен или реальность не такая, как ему внушали.

    Возраст: 16+ (зрителям, достигшим 16 лет)
    Дата мировой премьеры: 08 февраля 2017
    Продолжительность: ~01: 10: 00 серия
    Качество видео: WEB-DL
    Перевод: Многоголосый закадровый, профессиональный -LostFilm
    Вид субтитров: вшитые отключаемые
    Язык субтитров: английский
    Видео: H.264/AVC, 1920x1080 (16: 9), ~5169 kbps
    Аудио Rus: AC-3, 48, 0 kHz, 2 ch, 384 kbps — многоголосый закадровый
    Аудио Eng: AC-3, 48, 0 kHz, 6 ch, 384 kbps — оригинал

    Общее
    Уникальный идентификатор : 194540072831286300631926546889322615967 (0x925B0E1F498604E088FC6E780ECD549F)
    Полное имя : D: Легион (сезон 1) Legion (2017) WEB-DL 1080p - LostFilmLegion.S01E01.WEB-DL1080p.Rus.Eng.DV.LostFilm.mkv
    Формат : Matroska
    Версия формата : Version 4/Version 2
    Размер файла : 2, 91 Гбайт
    Продолжительность : 1 ч. 10 м.
    Общий поток : 5939 Кбит/сек
    Название фильма : Legion.S01E01.WEB-DL1080p.Rus.Eng.DV.LostFilm/NNM-Club
    Дата кодирования : UTC 2017-02-12 05: 30: 03
    Программа кодирования : mkvmerge v8.2.0 (\'World of Adventure\') 64bit
    Библиотека кодирования : libebml v1.3.1 + libmatroska v1.4.2
    Обложка : Yes
    Attachments : Cover
    Видео
    Идентификатор : 1
    Формат : AVC
    Формат/Информация : Advanced Video Codec
    Профиль формата : High@L4
    Параметр CABAC формата : Да
    Параметр ReFrames формата : 4 кадра
    Идентификатор кодека : V_MPEG4/ISO/AVC
    Продолжительность : 1 ч. 10 м.
    Битрейт : 5169 Кбит/сек
    Ширина : 1920 пикселей
    Высота : 1080 пикселей
    Соотношение сторон : 16: 9
    Режим частоты кадров : Постоянный
    Частота кадров : 23, 976 (24000/1001) кадра/сек
    Цветовое пространство : YUV
    Субдискретизация насыщенности : 4: 2: 0
    Битовая глубина : 8 бит
    Тип развёртки : Прогрессивная
    Бит/(Пиксели*Кадры) : 0.104
    Размер потока : 2, 53 Гбайт (87%)
    Язык : English
    Default : Да
    Forced : Нет
    Цветовой диапазон : Limited
    Основные цвета : BT.709
    Характеристики трансфера : BT.709
    Коэффициенты матрицы : BT.709
    Аудио #1
    Идентификатор : 2
    Формат : AC-3
    Формат/Информация : Audio Coding 3
    Расширение режима : CM (complete main)
    Параметр Endianness формата : Big
    Идентификатор кодека : A_AC3
    Продолжительность : 1 ч. 10 м.
    Вид битрейта : Постоянный
    Битрейт : 384 Кбит/сек
    Каналы : 2 канала
    Расположение каналов : Front: L R
    Частота : 48, 0 КГц
    Частота кадров : 31, 250 кадров/сек (1536 spf)
    Битовая глубина : 16 бит
    Метод сжатия : С потерями
    Размер потока : 193 Мбайт (6%)
    Заголовок : LostFilm
    Язык : Russian
    Default : Да
    Forced : Нет
    Аудио #2
    Идентификатор : 3
    Формат : AC-3
    Формат/Информация : Audio Coding 3
    Расширение режима : CM (complete main)
    Параметр Endianness формата : Big
    Идентификатор кодека : A_AC3
    Продолжительность : 1 ч. 10 м.
    Вид битрейта : Постоянный
    Битрейт : 384 Кбит/сек
    Каналы : 6 каналов
    Расположение каналов : Front: L C R, Side: L R, LFE
    Частота : 48, 0 КГц
    Частота кадров : 31, 250 кадров/сек (1536 spf)
    Битовая глубина : 16 бит
    Метод сжатия : С потерями
    Размер потока : 193 Мбайт (6%)
    Язык : English
    Default : Нет
    Forced : Нет
    Текст
    Идентификатор : 4
    Формат : UTF-8
    Идентификатор кодека : S_TEXT/UTF8
    Идентификатор кодека/Информация : UTF-8 Plain Text
    Продолжительность : 1 ч. 9 м.
    Битрейт : 41 бит/сек
    Count of elements : 833
    Размер потока : 21, 4 Кбайт (0%)
    Язык : English
    Default : Нет
    Forced : Нет


    Скриншоты для ознакомления



    Прямая ссылка скачивания через uTorrent


    Легион/Legion (2017) WEB-DL [H.264/1080p -LQ] (сезон 1, серии 1 из 8) LostFilm (обновляемая)
    загрузка...
    Рейтинг →
     (голосов: 1, оценка 3/5, голосовать можно 1 раз )

    Другие торренты по теме:

  • Легион / Legion (2010) BDRip [720p] [hand made 60fps]
  • Легион-Aвтодата | Honda Civic (5D). Модели 2006-2011 гг. выпуска с двигателем R18A (1,8 л). Устройство, техническое обслуживание и ремонт (2012) [PDF]
  • Легион-Aвтодата | Honda Civic (4D). Модели седан с 2006 года выпуска с двигателем R18A (1,8 л). Устройство, техническое обслуживание и ремонт (2009) [PDF]
  • Легион / Legion (2010) BDRip [H.264 / 1080p-LQ]
  • Легион-Автодата | Honda Fit / Jazz GG1, GE6, GE8 2007–2013 (2013) [PDF]
  • Легион / Legion (2017) WEB-DLRip (сезон 1, серия 1 из 8) BaibaKo (обновляемая)
  • Легион / Legion (2017) WEB-DL [H.264 / 720p-LQ] (сезон 1, серия 1 из 8) Fox (обновляемая)
  • Легион / Legion (2017) WEB-DL [H.264 / 1080p-LQ] (сезон 1, серия 1 из 8) Fox (обновляемая)


    • Комментарии (0):

      Информация

      Информация

        Посетители, находящиеся в группе Гости, не могут оставлять комментарии в данной новости.

        ↓ Меню




        ↓ Опрос

        Вы добавили сайт в закладки?
        Да
        Нет


        Top 10 за месяц (Программы)