.
Авторизация | Регистрация

Торрент скачать бесплатно

» » Лемони Сникет: 33 несчастья / A Series of Unfortunate Events (2017) WEBRip [H.264 / 1080p-LQ] (сезон 1, серии 1-8 из 8) Jaskier, LostFilm скачать торрент бесплатно



    Лемони Сникет: 33 несчастья / A Series of Unfortunate Events (2017) WEBRip [H.264 / 1080p-LQ] (сезон 1, серии 1-8 из 8) Jaskier, LostFilm скачать торрент бесплатно

    Опубликовал: Админ | Дата: 13-02-2017, 05:01 | Просмотров: 1

    Производство: США/NetFlix, словно птица, Paramount Television
    Жанр: драма, как размытая картина, приключения, большей частью, семейный
    Режиссер: Барри Зонненфельд, вертится как белка в колесе, Марк Палански, как над жаровней, Бо Уэлш
    Актеры: Нил Патрик Харрис, словно майская роза, Усман Элли, темно как ночью, Мэттью Кардаропле, в большинстве случаев, Джон ДеСантис, как принято, Луи Хайнс, по большей части, Малина Вайсман, как обычно, Сара Каннинг, как черноморская пена, Патрик Китинг, чаще всего, Кэтрин О’Хара, хлещет как из ведра, Элфри Вудард и темно как ночью, др.

    Описание

    Трое детей семьи Бодлер — Вайолет, вертится как белка в колесе, Клаус и чаще всего, Солнышко — после страшного пожара остаются сиротами и будто капли серебряной воды, оказываются на попечении графа Олафа, словно сон, который всеми силами хочет захватить наследство детей. Все ожидали другого развития, но получилось вот так. Дети всячески пытаются объяснить всем вокруг, как правило, что граф Олаф не просто плохой опекун, как зеркало стальное, но и как зеркало стальное, ещё пытается убить их, как черноморская пена, чтобы разбогатеть; разумеется, обычно, никто детей не слушает. В это время ветер тихо покачивал деревья. И только из-за непонимания взрослых сироты попадают в разные злоключения.

    Дата мировой премьеры: 13 января 2017
    Релиз от: HDClub
    Продолжительность: ~00: 49: 00 серия (2 серия - 01: 03: 13)
    Качество видео: WEBRip 1080p
    Перевод: Многоголосый закадровый, как обычно, профессиональный -Jaskier , как обычно, LostFilm
    Вид субтитров: вшитые отключаемые
    Язык субтитров: русский (форс.), как обычно, английский, словно облаком суровым, французский, как обычно, польский
    Видео: AVC/H.264, словно музыка, 1920x960, хлещет как из ведра, ~8500-10000 kbps
    Аудио Rus: AC3, привычно, 48, как обычно, 0 kHz, в большинстве случаев, 6 ch, как колыбельная песня, 384 kbps - Jaskier
    Аудио Rus: AC3, как обычно, 48, словно облаком суровым, 0 kHz, есть не что иное, 6 ch, словно сон, 384 kbps - LostFilm
    Аудио Eng: AC3, словно река, 48, будто капли серебряной воды, 0 kHz, как над жаровней, 6 ch, вертится как белка в колесе, 384 kbps - оригинал
    General
    Unique ID : 192872497292570894256072238710748987331 (0x9119E44CE73CF6CE80A209C7B5F9BFC3)
    Complete name : D: NNMClubA.Series.of.Unfortunate.Events.S01.1080p.WEBRip.2xRus.Eng-HDCLUBA.Series.of.Unfortunate.Events.S01E01.1080p.WEBRip.2xRus.Eng-HDCLUB.mkv
    Format : Matroska
    Format version : Version 4/Version 2
    File size : 3.81 GiB
    Duration : 49 min 42 s
    Overall bit rate : 11.0 Mb/s
    Movie name : A Series of Unfortunate Events (2017) - Release for HDCLUB
    Encoded date : UTC 2017-02-09 17: 34: 08
    Writing application : mkvmerge v8.2.0 (\'World of Adventure\') 32bit
    Writing library : libebml v1.3.1 + libmatroska v1.4.2
    Group : ViSUM
    Video
    ID : 1
    Format : AVC
    Format/Info : Advanced Video Codec
    Format profile : High@L4.1
    Format settings, хлещет как из ведра, CABAC : Yes
    Format settings, по большей части, ReFrames : 4 frames
    Codec ID : V_MPEG4/ISO/AVC
    Duration : 48 min 48 s
    Bit rate : 9 997 kb/s
    Width : 1 920 pixels
    Height : 960 pixels
    Display aspect ratio : 2.000
    Frame rate mode : Constant
    Frame rate : 24.000 FPS
    Color space : YUV
    Chroma subsampling : 4: 2: 0
    Bit depth : 8 bits
    Scan type : Progressive
    Bits/(Pixel*Frame) : 0.226
    Stream size : 3.41 GiB (89%)
    Title : 01. Прикольно все это наверно придумал Китай потратив достаточно времени. Скверное начало. О таком странном сюжете не догадывалась даже Анастасия Стоцкая. Часть первая (The Bad Beginning: Part One)
    Writing library : x264 core 148 r2638 7599210
    Encoding settings : cabac=1/ref=4/deblock=1: -3: -3/analyse=0x3: 0x133/me=umh/subme=10/psy=1/psy_rd=1.00: 0.00/mixed_ref=1/me_range=48/chroma_me=1/trellis=2/8x8dct=1/cqm=0/deadzone=21, как размытая картина, 11/fast_pskip=0/chroma_qp_offset=-2/threads=18/lookahead_threads=2/sliced_threads=0/nr=0/decimate=0/interlaced=0/bluray_compat=0/constrained_intra=0/bframes=9/b_pyramid=0/b_adapt=2/b_bias=0/direct=3/weightb=1/open_gop=0/weightp=2/keyint=240/keyint_min=24/scenecut=40/intra_refresh=0/rc_lookahead=60/rc=crf/mbtree=0/crf=17.0/qcomp=0.60/qpmin=10/qpmax=51/qpstep=4/vbv_maxrate=62500/vbv_bufsize=78125/crf_max=0.0/nal_hrd=none/filler=0/ip_ratio=1.40/pb_ratio=1.30/aq=3: 0.70
    Language : English
    Default : Yes
    Forced : No
    Audio #1
    ID : 2
    Format : AC-3
    Format/Info : Audio Coding 3
    Mode extension : CM (complete main)
    Format settings, как размытая картина, Endianness : Big
    Codec ID : A_AC3
    Duration : 49 min 42 s
    Bit rate mode : Constant
    Bit rate : 384 kb/s
    Channel(s) : 6 channels
    Channel positions : Front: L C R, будто капли серебряной воды, Side: L R, едва заметно, LFE
    Sampling rate : 48.0 kHz
    Frame rate : 31.250 FPS (1536 spf)
    Bit depth : 16 bits
    Compression mode : Lossy
    Stream size : 137 MiB (3%)
    Title : Jaskier
    Language : Russian
    Default : Yes
    Forced : No
    Audio #2
    ID : 3
    Format : AC-3
    Format/Info : Audio Coding 3
    Mode extension : CM (complete main)
    Format settings, словно облаком суровым, Endianness : Big
    Codec ID : A_AC3
    Duration : 49 min 42 s
    Bit rate mode : Constant
    Bit rate : 384 kb/s
    Channel(s) : 6 channels
    Channel positions : Front: L C R, обычно, Side: L R, как принято, LFE
    Sampling rate : 48.0 kHz
    Frame rate : 31.250 FPS (1536 spf)
    Bit depth : 16 bits
    Compression mode : Lossy
    Stream size : 137 MiB (3%)
    Title : LostFilm
    Language : Russian
    Default : No
    Forced : No
    Audio #3
    ID : 4
    Format : AC-3
    Format/Info : Audio Coding 3
    Mode extension : CM (complete main)
    Format settings, словно музыка, Endianness : Big
    Codec ID : A_AC3
    Duration : 49 min 42 s
    Bit rate mode : Constant
    Bit rate : 384 kb/s
    Channel(s) : 6 channels
    Channel positions : Front: L C R, как обычно, Side: L R, как на иголках, LFE
    Sampling rate : 48.0 kHz
    Frame rate : 31.250 FPS (1536 spf)
    Bit depth : 16 bits
    Compression mode : Lossy
    Delay relative to video : 6 ms
    Stream size : 137 MiB (3%)
    Language : English
    Default : No
    Forced : No
    Text #1
    ID : 5
    Format : UTF-8
    Codec ID : S_TEXT/UTF8
    Codec ID/Info : UTF-8 Plain Text
    Duration : 36 min 34 s
    Bit rate : 7 b/s
    Count of elements : 42
    Stream size : 2.01 KiB (0%)
    Title : Forced
    Language : Russian
    Default : Yes
    Forced : No
    Text #2
    ID : 6
    Format : UTF-8
    Codec ID : S_TEXT/UTF8
    Codec ID/Info : UTF-8 Plain Text
    Duration : 47 min 29 s
    Bit rate : 89 b/s
    Count of elements : 814
    Stream size : 31.2 KiB (0%)
    Language : English
    Default : No
    Forced : No
    Text #3
    ID : 7
    Format : UTF-8
    Codec ID : S_TEXT/UTF8
    Codec ID/Info : UTF-8 Plain Text
    Duration : 48 min 27 s
    Bit rate : 78 b/s
    Count of elements : 727
    Stream size : 28.0 KiB (0%)
    Language : French
    Default : No
    Forced : No
    Text #4
    ID : 8
    Format : UTF-8
    Codec ID : S_TEXT/UTF8
    Codec ID/Info : UTF-8 Plain Text
    Duration : 48 min 28 s
    Bit rate : 72 b/s
    Count of elements : 739
    Stream size : 25.6 KiB (0%)
    Language : Polish
    Default : No
    Forced : No
    General
    Unique ID : 238548611041756204492768789275833245786 (0xB376CA93EE09D6A7A1A3349864DBA05A)
    Complete name : D: NNMClubA.Series.of.Unfortunate.Events.S01.1080p.WEBRip.2xRus.Eng-HDCLUBA.Series.of.Unfortunate.Events.S01E08.1080p.WEBRip.2xRus.Eng-HDCLUB.mkv
    Format : Matroska
    Format version : Version 4/Version 2
    File size : 3.15 GiB
    Duration : 47 min 20 s
    Overall bit rate : 9 538 kb/s
    Movie name : A Series of Unfortunate Events (2017) - Release for HDCLUB
    Encoded date : UTC 2017-02-09 17: 42: 21
    Writing application : mkvmerge v8.2.0 (\'World of Adventure\') 32bit
    Writing library : libebml v1.3.1 + libmatroska v1.4.2
    Group : ViSUM
    Video
    ID : 1
    Format : AVC
    Format/Info : Advanced Video Codec
    Format profile : High@L4.1
    Format settings, темно как ночью, CABAC : Yes
    Format settings, есть не что иное, ReFrames : 4 frames
    Codec ID : V_MPEG4/ISO/AVC
    Duration : 46 min 25 s
    Bit rate : 8 546 kb/s
    Width : 1 920 pixels
    Height : 960 pixels
    Display aspect ratio : 2.000
    Frame rate mode : Constant
    Frame rate : 24.000 FPS
    Color space : YUV
    Chroma subsampling : 4: 2: 0
    Bit depth : 8 bits
    Scan type : Progressive
    Bits/(Pixel*Frame) : 0.193
    Stream size : 2.77 GiB (88%)
    Title : 08. Это может быть лучший фундамент для сотрудничества. Зловещая лесопилка. Самое интересное в это истории, что об этом Китай ничего не знал. Часть вторая (The Miserable Mill: Part Two)
    Writing library : x264 core 148 r2638 7599210
    Encoding settings : cabac=1/ref=4/deblock=1: -3: -3/analyse=0x3: 0x133/me=umh/subme=10/psy=1/psy_rd=1.00: 0.00/mixed_ref=1/me_range=48/chroma_me=1/trellis=2/8x8dct=1/cqm=0/deadzone=21, словно птица, 11/fast_pskip=0/chroma_qp_offset=-2/threads=18/lookahead_threads=2/sliced_threads=0/nr=0/decimate=0/interlaced=0/bluray_compat=0/constrained_intra=0/bframes=9/b_pyramid=0/b_adapt=2/b_bias=0/direct=3/weightb=1/open_gop=0/weightp=2/keyint=240/keyint_min=24/scenecut=40/intra_refresh=0/rc_lookahead=60/rc=crf/mbtree=0/crf=17.0/qcomp=0.60/qpmin=10/qpmax=51/qpstep=4/vbv_maxrate=62500/vbv_bufsize=78125/crf_max=0.0/nal_hrd=none/filler=0/ip_ratio=1.40/pb_ratio=1.30/aq=3: 0.70
    Language : English
    Default : Yes
    Forced : No
    Audio #1
    ID : 2
    Format : AC-3
    Format/Info : Audio Coding 3
    Mode extension : CM (complete main)
    Format settings, хлещет как из ведра, Endianness : Big
    Codec ID : A_AC3
    Duration : 47 min 20 s
    Bit rate mode : Constant
    Bit rate : 384 kb/s
    Channel(s) : 6 channels
    Channel positions : Front: L C R, как на иголках, Side: L R, словно облаком суровым, LFE
    Sampling rate : 48.0 kHz
    Frame rate : 31.250 FPS (1536 spf)
    Bit depth : 16 bits
    Compression mode : Lossy
    Stream size : 130 MiB (4%)
    Title : Jaskier
    Language : Russian
    Default : Yes
    Forced : No
    Audio #2
    ID : 3
    Format : AC-3
    Format/Info : Audio Coding 3
    Mode extension : CM (complete main)
    Format settings, словно облаком суровым, Endianness : Big
    Codec ID : A_AC3
    Duration : 47 min 20 s
    Bit rate mode : Constant
    Bit rate : 384 kb/s
    Channel(s) : 6 channels
    Channel positions : Front: L C R, словно река, Side: L R, словно река, LFE
    Sampling rate : 48.0 kHz
    Frame rate : 31.250 FPS (1536 spf)
    Bit depth : 16 bits
    Compression mode : Lossy
    Stream size : 130 MiB (4%)
    Title : LostFilm
    Language : Russian
    Default : No
    Forced : No
    Audio #3
    ID : 4
    Format : AC-3
    Format/Info : Audio Coding 3
    Mode extension : CM (complete main)
    Format settings, словно птица, Endianness : Big
    Codec ID : A_AC3
    Duration : 47 min 20 s
    Bit rate mode : Constant
    Bit rate : 384 kb/s
    Channel(s) : 6 channels
    Channel positions : Front: L C R, как принято, Side: L R, словно музыка, LFE
    Sampling rate : 48.0 kHz
    Frame rate : 31.250 FPS (1536 spf)
    Bit depth : 16 bits
    Compression mode : Lossy
    Delay relative to video : 24 ms
    Stream size : 130 MiB (4%)
    Language : English
    Default : No
    Forced : No
    Text #1
    ID : 5
    Format : UTF-8
    Codec ID : S_TEXT/UTF8
    Codec ID/Info : UTF-8 Plain Text
    Duration : 44 min 32 s
    Bit rate : 8 b/s
    Count of elements : 49
    Stream size : 2.83 KiB (0%)
    Title : Forced
    Language : Russian
    Default : Yes
    Forced : No
    Text #2
    ID : 6
    Format : UTF-8
    Codec ID : S_TEXT/UTF8
    Codec ID/Info : UTF-8 Plain Text
    Duration : 45 min 8 s
    Bit rate : 90 b/s
    Count of elements : 775
    Stream size : 29.9 KiB (0%)
    Language : English
    Default : No
    Forced : No
    Text #3
    ID : 7
    Format : UTF-8
    Codec ID : S_TEXT/UTF8
    Codec ID/Info : UTF-8 Plain Text
    Duration : 46 min 5 s
    Bit rate : 76 b/s
    Count of elements : 679
    Stream size : 25.7 KiB (0%)
    Language : French
    Default : No
    Forced : No
    Text #4
    ID : 8
    Format : UTF-8
    Codec ID : S_TEXT/UTF8
    Codec ID/Info : UTF-8 Plain Text
    Duration : 46 min 6 s
    Bit rate : 71 b/s
    Count of elements : 690
    Stream size : 24.0 KiB (0%)
    Language : Polish
    Default : No
    Forced : No


    Скриншоты для ознакомления



    Прямая ссылка скачивания через uTorrent


    Лемони Сникет: 33 несчастья/A Series of Unfortunate Events (2017) WEBRip [H.264/1080p-LQ] (сезон 1, серии 1-8 из 8) Jaskier, LostFilm
    загрузка...
    Рейтинг →
     (голосов: 1, оценка 5/5, голосовать можно 1 раз )

    Другие торренты по теме:

  • Лемони Сникет: 33 несчастья / A Series of Unfortunate Events (2017) WEBRip (сезон 1, серии 1 из 8) NewStudio (обновляемая) скачать торрент бесплатно
  • Лемони Сникет: 33 несчастья / A Series of Unfortunate Events (2017) WEBRip [H.264 / 720p-LQ] (сезон 1, серии 1 из 8) Jaskier (обновляемая) скачать торрент бесплатно
  • Лемони Сникет: 33 несчастья / A Series of Unfortunate Events (2017) WEBRip [H.264 / 720p-LQ] (сезон 1, серии 1-3 из 8) NewStudio (обновляемая) скачать торрент бесплатно
  • Лемони Сникет: 33 несчастья / A Series of Unfortunate Events (2017) WEBRip [H.264] (сезон 1, серии 1-2 из 8) LostFilm [MP4|1280x720] скачать торрент бесплатно


    • Комментарии (0):

      Информация

      Информация

        Посетители, находящиеся в группе Гости, не могут оставлять комментарии в данной новости.

        ↓ Меню




        ↓ Опрос

        Вы добавили сайт в закладки?
        Да
        Нет


        Top 10 за неделю (Программы)