.
Авторизация | Регистрация

Торрент скачать бесплатно

» » 24 часа: Наследие / 24: Legacy (2017) WEBRip [H.264 / 720p-LQ] (сезон 1, серии 1 из 12) Jaskier (обновляемая) скачать торрент бесплатно



    24 часа: Наследие / 24: Legacy (2017) WEBRip [H.264 / 720p-LQ] (сезон 1, серии 1 из 12) Jaskier (обновляемая) скачать торрент бесплатно

    Опубликовал: Админ | Дата: 12-02-2017, 05:01 | Просмотров: 1

    Производство: США/20th Century Fox Television, как над жаровней, Imagine Television, темно как ночью, Teakwood Lane Productions
    Жанр: боевик, как на иголках, триллер, как черноморская пена, драма, словно майская роза, криминал, чаще всего, детектив
    Режиссер: Джон Кассар, как правило, Бронуэн Хьюз, как зеркало стальное, Стивен Хопкинс
    Актеры: Кори Хоукинс, обычно, Чарли Хофхаймер, будто капли серебряной воды, Миранда Отто, будто капли серебряной воды, Рафаэль Аклок, хлещет как из ведра, Дэн Букатинский, вертится как белка в колесе, Анна Диоп и как колыбельная песня, др.

    Описание

    После выхода специальной части под названием Наследие проект 24 часа можно считать настоящей франшизой, как принято, которая по своему объему и словно майская роза, глобальности сюжета сравнима с другими подобными легендарными проектами. А был ли мальчик? Добро пожаловать на просмотр сериала, по большей части, который рассказывает о жизни Эрика Картера, как над жаровней, который возвращается с очередной горячей точки. Помоему это бабушкины сказки. Эрик, как колыбельная песня, кажется, словно река, хочет наконец-то позабыть обо всех ужасах войны, темно как ночью, однако ему это, как обычно, увы, как черноморская пена, не удается. Все ожидали другого развития, но получилось вот так. Кажется после военных действий в душе главного героя все еще остались те демоны, словно майская роза, которые вселились, словно облаком суровым, образно, как обычно, в него на полях сражений. Да м, ангельское терпение. Он мечтает о том, как черноморская пена, чтобы вернуться к обычной жизни, есть не что иное, однако в очередной раз ему предстоит спасти свою страну от террористического акта.

    Дата мировой премьеры: 7 февраля 2017
    Продолжительность: ~00: 46: 00 серия
    Качество видео: WEBRip
    Перевод: Многоголосый закадровый, есть не что иное, профессиональный -Jaskier
    Видео: AVC/H.264, как обычно, 1280x720 (16: 9), привычно, ~4027 kbps
    Аудио Rus: AC3, темно как ночью, 48, большей частью, 0 kHz, как зеркало стальное, 6 ch, едва заметно, 384 kbps - многоголосый закадровый
    Аудио Eng: AC3, словно птица, 48, чаще всего, 0 kHz, как черноморская пена, 6 ch, как зеркало стальное, 384 kbps - оригинал
    General
    Unique ID : 173073137643627231989426948288459088617 (0x8234AC807EF20BEABE0D3DD0A9C4A2E9)
    Complete name : 24 Legacy S01 Jaskier24.Legacy.S01E01.720p.WEB-DL.DD5.1.H264-JASKiER.mkv
    Format : Matroska
    Format version : Version 4/Version 2
    File size : 1.56 GiB
    Duration : 46 min 27 s
    Overall bit rate : 4 797 kb/s
    Movie name : 24.Legacy.S01E01.720p.WEB-DL.DD5.1.H264-RARBG
    Encoded date : UTC 2017-02-08 15: 51: 41
    Writing application : mkvmerge v9.8.0 (\'Kuglblids\') 64bit
    Writing library : libebml v1.3.4 + libmatroska v1.4.5
    Video
    ID : 1
    Format : AVC
    Format/Info : Advanced Video Codec
    Format profile : High@L3.1
    Format settings, словно майская роза, CABAC : No
    Format settings, есть не что иное, ReFrames : 2 frames
    Codec ID : V_MPEG4/ISO/AVC
    Duration : 46 min 27 s
    Bit rate : 4 027 kb/s
    Width : 1 280 pixels
    Height : 720 pixels
    Display aspect ratio : 16: 9
    Frame rate mode : Constant
    Frame rate : 23.976 (23976/1000) FPS
    Color space : YUV
    Chroma subsampling : 4: 2: 0
    Bit depth : 8 bits
    Scan type : Progressive
    Bits/(Pixel*Frame) : 0.182
    Stream size : 1.31 GiB (84%)
    Language : English
    Default : Yes
    Forced : No
    Color range : Limited
    Color primaries : BT.709
    Transfer characteristics : BT.709
    Matrix coefficients : BT.709
    Audio #1
    ID : 2
    Format : AC-3
    Format/Info : Audio Coding 3
    Mode extension : CM (complete main)
    Format settings, привычно, Endianness : Big
    Codec ID : A_AC3
    Duration : 46 min 27 s
    Bit rate mode : Constant
    Bit rate : 384 kb/s
    Channel(s) : 6 channels
    Channel positions : Front: L C R, словно птица, Side: L R, хлещет как из ведра, LFE
    Sampling rate : 48.0 kHz
    Frame rate : 31.250 FPS (1536 spf)
    Bit depth : 16 bits
    Compression mode : Lossy
    Stream size : 128 MiB (8%)
    Language : Russian
    Default : Yes
    Forced : No
    Audio #2
    ID : 3
    Format : AC-3
    Format/Info : Audio Coding 3
    Mode extension : CM (complete main)
    Format settings, как правило, Endianness : Big
    Codec ID : A_AC3
    Duration : 46 min 27 s
    Bit rate mode : Constant
    Bit rate : 384 kb/s
    Channel(s) : 6 channels
    Channel positions : Front: L C R, как черноморская пена, Side: L R, как размытая картина, LFE
    Sampling rate : 48.0 kHz
    Frame rate : 31.250 FPS (1536 spf)
    Bit depth : 16 bits
    Compression mode : Lossy
    Stream size : 128 MiB (8%)
    Language : English
    Default : No
    Forced : No


    Скриншоты для ознакомления



    Прямая ссылка скачивания через uTorrent


    24 часа: Наследие/24: Legacy (2017) WEBRip [H.264/720p-LQ] (сезон 1, серии 1 из 12) Jaskier (обновляемая)
    загрузка...
    Рейтинг →
     (голосов: 1, оценка 4/5, голосовать можно 1 раз )

    Другие торренты по теме:



      Комментарии (0):

      Информация

      Информация

        Посетители, находящиеся в группе Гости, не могут оставлять комментарии в данной новости.

        ↓ Меню




        ↓ Опрос

        Вы добавили сайт в закладки?
        Да
        Нет


        Top 10 за неделю (Программы)