.
Авторизация | Регистрация
Хочешь лучшие торренты? Добавь свой email!
Добавить

Торрент скачать бесплатно

» » В розыске / Сигнал всем постам / A.P.B. (2016) WEB-DL [H.264 / 1080p-LQ] (сезон 1, серии 1 из 12) OmskBird (обновляемая) торрент скачать бесплатно



    В розыске / Сигнал всем постам / A.P.B. (2016) WEB-DL [H.264 / 1080p-LQ] (сезон 1, серии 1 из 12) OmskBird (обновляемая) торрент скачать бесплатно

    Опубликовал: Админ | Дата: 10-02-2017, 05:01 | Просмотров: 1

    Производство: США
    Жанр: драма, криминал
    Режиссер: Дуан Кларк, Джеффри Дж. Хант, Эми Канаан Манн
    Актеры: Джастин Кирк, Натали Мартинес, Кэйтлин Стэйси, Уильям Смайли, Адам Менджеринк, Алекс Зеленка, Ральф Аббас и др.

    Описание

    Сюжет расскажет о том, что может получиться, если повёрнутый на высоких технологиях миллиардер-эксцентрик Гидеон Ривз заключит взаимовыгодную сделку с погрязшим в криминале и коррупции городом-банкротом для создания частной полиции.

    Дата мировой премьеры: 6 февраля 2017
    Релиз от: OmskBird
    Продолжительность: ~00: 46: 00 серия
    Качество видео: WEB-DL
    Перевод: Многоголосый закадровый, профессиональный - OmskBird
    Вид субтитров: вшитые отключаемые
    Язык субтитров: английский
    Видео: AVC/H.264, 1920x1080 (16: 9), ~5138 kbps
    Аудио # rus: AC3, 6 ch, 384 Kbps - многоголосый закадровый
    Аудио # eng: AC3, 6 ch, 384 Kbps - оригинал

    General
    Unique ID : 212252364135734891255203771634931956680 (0x9FAE5181B7F9784793B48F7774E77BC8)
    Complete name : G: FilmsAPB.S01.1080p.WEB-DL.OmskBirdAPB.S01E01.1080p.WEB-DL.OmskBird.mkv
    Format : Matroska
    Format version : Version 4/Version 2
    File size : 1.91 GiB
    Duration : 46mn 23s
    Overall bit rate : 5 908 Kbps
    Encoded date : UTC 2017-02-09 09: 59: 34
    Writing application : mkvmerge v9.7.1 (\'Pandemonium\') 64bit
    Writing library : libebml v1.3.4 + libmatroska v1.4.5
    Video
    ID : 1
    Format : AVC
    Format/Info : Advanced Video Codec
    Format profile : High@L4
    Format settings, CABAC : Yes
    Format settings, ReFrames : 4 frames
    Codec ID : V_MPEG4/ISO/AVC
    Duration : 46mn 23s
    Bit rate : 5 138 Kbps
    Width : 1 920 pixels
    Height : 1 080 pixels
    Display aspect ratio : 16: 9
    Frame rate mode : Constant
    Frame rate : 23.976 (24000/1001) fps
    Color space : YUV
    Chroma subsampling : 4: 2: 0
    Bit depth : 8 bits
    Scan type : Progressive
    Bits/(Pixel*Frame) : 0.103
    Stream size : 1.66 GiB (87%)
    Language : English
    Default : Yes
    Forced : No
    Color range : Limited
    Color primaries : BT.709
    Transfer characteristics : BT.709
    Matrix coefficients : BT.709
    Audio #1
    ID : 2
    Format : AC-3
    Format/Info : Audio Coding 3
    Mode extension : CM (complete main)
    Format settings, Endianness : Big
    Codec ID : A_AC3
    Duration : 46mn 23s
    Bit rate mode : Constant
    Bit rate : 384 Kbps
    Channel(s) : 6 channels
    Channel positions : Front: L C R, Side: L R, LFE
    Sampling rate : 48.0 KHz
    Frame rate : 31.250 fps (1536 spf)
    Compression mode : Lossy
    Stream size : 127 MiB (6%)
    Title : OmskBird 5.1
    Language : Russian
    Default : Yes
    Forced : No
    Audio #2
    ID : 3
    Format : AC-3
    Format/Info : Audio Coding 3
    Mode extension : CM (complete main)
    Format settings, Endianness : Big
    Codec ID : A_AC3
    Duration : 46mn 23s
    Bit rate mode : Constant
    Bit rate : 384 Kbps
    Channel(s) : 6 channels
    Channel positions : Front: L C R, Side: L R, LFE
    Sampling rate : 48.0 KHz
    Frame rate : 31.250 fps (1536 spf)
    Compression mode : Lossy
    Stream size : 127 MiB (6%)
    Title : eng
    Language : English
    Default : No
    Forced : No
    Text
    ID : 4
    Format : UTF-8
    Codec ID : S_TEXT/UTF8
    Codec ID/Info : UTF-8 Plain Text
    Duration : 46mn 21s
    Bit rate : 88 bps
    Count of elements : 1064
    Stream size : 29.9 KiB (0%)
    Title : CC
    Language : English
    Default : No
    Forced : No


    Скриншоты для ознакомления



    Прямая ссылка скачивания через uTorrent


    В розыске/Сигнал всем постам/A.P.B. (2016) WEB-DL [H.264/1080p-LQ] (сезон 1, серии 1 из 12) OmskBird (обновляемая)
    загрузка...
    Рейтинг →
     (голосов: 1, оценка 5/5, голосовать можно 1 раз )

    Другие торренты по теме:

  • В розыске / Сигнал всем постам / A.P.B. (2016) WEB-DL [H.264 / 720p-LQ] (сезон 1, серия 1 из 12) BaibaKo (обновляемая)
  • В розыске / Сигнал всем постам / A.P.B. (2016) WEB-DL [H.264 / 1080p-LQ] (сезон 1, серия 1 из 12) BaibaKo (обновляемая)
  • В розыске / Сигнал всем постам / A.P.B. (2017) WEB-DLRip (сезон 1, серия 1 из 12) BaibaKo (обновляемая)
  • В розыске / Сигнал всем постам / A.P.B. (2017) WEB-DLRip [H.264 / 720p-LQ] (сезон 1, серии 1-2 из 12) Jaskier (обновляемая)
  • В розыске / Сигнал всем постам / A.P.B. (2016) WEB-DLRip (сезон 1, серии 1-12 из 12) BaibaKo


    • Комментарии (0):

      Информация

      Информация

        Посетители, находящиеся в группе Гости, не могут оставлять комментарии в данной новости.

        ↓ Меню




        ↓ Опрос

        Вы добавили сайт в закладки?
        Да
        Нет


        Top 10 за месяц (Программы)