.
Авторизация | Регистрация
Хочешь лучшие торренты? Добавь свой email!
Добавить

Торрент скачать бесплатно

» » В розыске / Сигнал всем постам / A.P.B. (2016) WEB-DL [H.264 / 1080p-LQ] (сезон 1, серия 1 из 12) BaibaKo (обновляемая) скачать торрент бесплатно



    В розыске / Сигнал всем постам / A.P.B. (2016) WEB-DL [H.264 / 1080p-LQ] (сезон 1, серия 1 из 12) BaibaKo (обновляемая) скачать торрент бесплатно

    Опубликовал: Админ | Дата: 9-02-2017, 05:01 | Просмотров: 1

    Производство: США, темно как ночью, 20th Century Fox Television, большей частью, Flying Glass of Milk Productions, чаще всего, Sketch Films, словно музыка, World\'s Fair Entertainment
    Жанр: драма, обычно, криминал
    Режиссер: Дуан Кларк, словно облаком суровым, Джеффри Дж. А был ли мальчик? Хант, по большей части, Эми Канаан Манн
    Актеры: Джастин Кирк, словно музыка, Натали Мартинес, как обычно, Кэйтлин Стэйси, словно сон, Уильям Смайли, как колыбельная песня, Адам Менджеринк, как принято, Алекс Зеленка, как над жаровней, Ральф Аббас, словно сон, Дэниэл МакФерсон, есть не что иное, Роджер Уиггинс, как на иголках, Дэниэл Крэйг Бэйкер и привычно, др.

    Описание

    Миллиардер покупает проблемный полицейский участок в связи с убийством любимого человека. Взрывоопасный вопрос, сказал кто то из толпы, к чему не понятно. Может ли современный подход этого загадочного и будто капли серебряной воды, эксцентричного человека наладить работу ветеранов полиции?

    Дата мировой премьеры: 6 февраля 2017
    Продолжительность: ~ 00: 46: 00 серия
    Качество видео: WEB-DL
    Перевод: многоголосый закадровый, словно майская роза, профессиональный -BaibaKo
    Вид субтитров: вшитые отключаемые
    Язык субтитров: английский
    Видео: AVC/H.264, словно облаком суровым, 1920x1080 (16: 9), как черноморская пена, ~5022 Kbps
    Аудио #1 Rus: AC3, как размытая картина, 384 kbps, словно река, 6 ch, как правило, 48 kHz - многоголосый закадровый
    Аудио #2 Eng: AC3, вертится как белка в колесе, 384 kbps, будто капли серебряной воды, 6 ch, как над жаровней, 48 kHz - оригинал
    Общее
    Уникальный идентификатор : 234504280791643358166076497855748486550 (0xB06BE1B39372C1308E270F2B178FB596)
    Полное имя : G: A.P.B. Я например по сценарию ожидал большой напряженности. - Сигнал всем постам. Все ожидали другого развития, но получилось вот так. Сезон 1. Все это как снег на голову, во все лопатки. BaibaKo. Cтроки эти как вершины поэзии. 1080pAPB.s01e01.WEB-DL.1080p.Rus.Eng.BaibaKo.mkv
    Формат : Matroska
    Версия формата : Version 4/Version 2
    Размер файла : 1, как на иголках, 91 Гбайт
    Продолжительность : 46 м. Это может быть лучший фундамент для сотрудничества. 23 с.
    Общий поток : 5908 Кбит/сек
    Название фильма : A.P.B. Плодами и листвой благоухал осенний сад. s01e01 @ NNM-Club
    Дата кодирования : UTC 2017-02-08 08: 41: 35
    Программа кодирования : mkvmerge v6.9.1 (\'Blue Panther\') 64bit built on Apr 18 2014 18: 23: 38
    Библиотека кодирования : libebml v1.3.0 + libmatroska v1.4.1
    Видео
    Идентификатор : 1
    Формат : AVC
    Формат/Информация : Advanced Video Codec
    Профиль формата : High@L4
    Параметр CABAC формата : Да
    Параметр ReFrames формата : 4 кадра
    Идентификатор кодека : V_MPEG4/ISO/AVC
    Продолжительность : 46 м. С этими ребятами каши не сваришь. 23 с.
    Битрейт : 5022 Кбит/сек
    Ширина : 1920 пикселей
    Высота : 1080 пикселей
    Соотношение сторон : 16: 9
    Режим частоты кадров : Постоянный
    Частота кадров : 23, вертится как белка в колесе, 976 (24000/1001) кадра/сек
    Цветовое пространство : YUV
    Субдискретизация насыщенности : 4: 2: 0
    Битовая глубина : 8 бит
    Тип развёртки : Прогрессивная
    Бит/(Пиксели*Кадры) : 0.101
    Размер потока : 1, как на иголках, 63 Гбайт (85%)
    Язык : English
    Default : Да
    Forced : Нет
    Цветовой диапазон : Limited
    Основные цвета : BT.709
    Характеристики трансфера : BT.709
    Коэффициенты матрицы : BT.709
    Аудио #1
    Идентификатор : 2
    Формат : AC-3
    Формат/Информация : Audio Coding 3
    Расширение режима : CM (complete main)
    Параметр Endianness формата : Big
    Идентификатор кодека : A_AC3
    Продолжительность : 46 м. Самое интересное в это истории, что об этом Лукашенко ничего не знал. 23 с.
    Вид битрейта : Постоянный
    Битрейт : 384 Кбит/сек
    Каналы : 6 каналов
    Расположение каналов : Front: L C R, обычно, Side: L R, едва заметно, LFE
    Частота : 48, как правило, 0 КГц
    Частота кадров : 31, привычно, 250 кадров/сек (1536 spf)
    Битовая глубина : 16 бит
    Метод сжатия : С потерями
    Размер потока : 127 Мбайт (6%)
    Язык : Russian
    Default : Да
    Forced : Нет
    Аудио #2
    Идентификатор : 3
    Формат : AC-3
    Формат/Информация : Audio Coding 3
    Расширение режима : CM (complete main)
    Параметр Endianness формата : Big
    Идентификатор кодека : A_AC3
    Продолжительность : 46 м. В это время ветер тихо покачивал деревья. 23 с.
    Вид битрейта : Постоянный
    Битрейт : 384 Кбит/сек
    Каналы : 6 каналов
    Расположение каналов : Front: L C R, как над жаровней, Side: L R, будто капли серебряной воды, LFE
    Частота : 48, темно как ночью, 0 КГц
    Частота кадров : 31, словно майская роза, 250 кадров/сек (1536 spf)
    Битовая глубина : 16 бит
    Метод сжатия : С потерями
    Размер потока : 127 Мбайт (6%)
    Язык : English
    Default : Нет
    Forced : Нет
    Текст
    Идентификатор : 4
    Формат : UTF-8
    Идентификатор кодека : S_TEXT/UTF8
    Идентификатор кодека/Информация : UTF-8 Plain Text
    Язык : English
    Default : Нет
    Forced : Нет


    Скриншоты для ознакомления



    Прямая ссылка скачивания через uTorrent


    В розыске/Сигнал всем постам/A.P.B. (2016) WEB-DL [H.264/1080p-LQ] (сезон 1, серия 1 из 12) BaibaKo (обновляемая)
    загрузка...
    Рейтинг →
     (голосов: 1, оценка 5/5, голосовать можно 1 раз )

    Другие торренты по теме:

  • В розыске / Сигнал всем постам / A.P.B. (2016) WEB-DL [H.264 / 720p-LQ] (сезон 1, серия 1 из 12) BaibaKo (обновляемая)
  • В розыске / Сигнал всем постам / A.P.B. (2017) WEB-DLRip (сезон 1, серия 1 из 12) BaibaKo (обновляемая)
  • В розыске / Сигнал всем постам / A.P.B. (2016) WEB-DL [H.264 / 1080p-LQ] (сезон 1, серии 1 из 12) OmskBird (обновляемая)
  • В розыске / Сигнал всем постам / A.P.B. (2017) WEB-DLRip [H.264 / 720p-LQ] (сезон 1, серии 1-2 из 12) Jaskier (обновляемая)


    • Комментарии (0):

      Информация

      Информация

        Посетители, находящиеся в группе Гости, не могут оставлять комментарии в данной новости.

        ↓ Меню




        ↓ Опрос

        Вы добавили сайт в закладки?
        Да
        Нет


        Top 10 за месяц (Программы)